↑↓torrent.by
Поиск
Логин: Регистрация
Пароль: Восстановить пароль

Пушки Акимбо / Guns Akimbo (2019) WEB-DL 1080p от селезень | iTunes

Скачать pushki-akimbo-guns-2019-web-dl-1080p-ot-selezen-itunes.torrent
U Магнитная ссылка Размер: 6.35 GB Раздают: 253 Качают: 117 Добавлен: 2020-03-26 07:04:20
Пушки Акимбо / Guns Akimbo (2019) WEB-DL 1080p от селезень | iTunes

Название: Пушки Акимбо
Оригинальное название: Guns Akimbo
Год выхода: 2019
Жанр: Боевик, комедия
Режиссер: Джейсон Ли Хауден
В ролях: Дэниэл Рэдклифф, Самара Уивинг, Риз Дэрби, Нед Деннехи, Наташа Лю Бордиццо, Марк Роули, Грант Боулер, Ханако Футман, Джош Роберт Томпсон, Сет Сьостранд

О фильме: Майлз был обычным разработчиком видеоигр, пока его не втянули в кровавый квест. Незнакомцы вломились в дом, прибили к рукам два пистолета и похитили любимую девушку. Теперь Майлзу придётся сразиться с Никс - безжалостной чемпионкой подпольных игр на выживание.

Страна: Великобритания, Германия, Новая Зеландия
Студия: Altitude Film Entertainment, Four Knights Film, Hyperion Media Group
Продолжительность: 01:37:48
Перевод: Дублированный | iTunes

Качество: WEB-DL 1080p
Видео: MPEG-4 AVC, 1920x800, 8269 Kbit/s, 23.976 fps
Аудио #01: 48 kHz, AC3, 5.1, 384 Kbps | iTunes | RUS |
Аудио #02: 48 kHz, E-AC3, 5.1, 640 Kbps | Оригинал |  ENG |
Субтитры: Русские (Forced, full), английские

Релиз:


[+] MI
General
Unique ID                   : 83649636260864403280312203764888559434 (0x3EEE557C83B3C5C91682DF0412F8DF4A)
Complete name               : E:Video111Guns.Akimbo.2019.AMZN.WEB-DL.1080p.seleZen.mkv
Format                      : Matroska
Format version              : Version 4
File size                   : 6.35 GiB
Duration                    : 1 h 37 min
Overall bit rate            : 9 295 kb/s
Movie name                  : Guns Akimbo 2019 from селезень
Encoded date                : UTC 2020-03-25 21:33:46
Writing application         : mkvmerge v40.0.0 ('Old Town Road + Pony') 64-bit
Writing library             : libebml v1.3.9 + libmatroska v1.5.2

Video
ID                          : 1
Format                      : AVC
Format/Info                 : Advanced Video Codec
Format profile              : High@L4
Format settings             : CABAC / 4 Ref Frames
Format settings, CABAC      : Yes
Format settings, Reference  : 4 frames
Codec ID                    : V_MPEG4/ISO/AVC
Duration                    : 1 h 37 min
Bit rate mode               : Constant
Bit rate                    : 8 269 kb/s
Nominal bit rate            : 10 000 kb/s
Width                       : 1 920 pixels
Height                      : 800 pixels
Display aspect ratio        : 2.40:1
Frame rate mode             : Constant
Frame rate                  : 23.976 (24000/1001) FPS
Color space                 : YUV
Chroma subsampling          : 4:2:0
Bit depth                   : 8 bits
Scan type                   : Progressive
Bits/(Pixel*Frame)          : 0.225
Stream size                 : 5.65 GiB (89%)
Language                    : English
Default                     : Yes
Forced                      : No
Color range                 : Limited
Color primaries             : BT.709
Transfer characteristics    : BT.709
Matrix coefficients         : BT.709

Audio #1
ID                          : 2
Format                      : AC-3
Format/Info                 : Audio Coding 3
Commercial name             : Dolby Digital
Codec ID                    : A_AC3
Duration                    : 1 h 37 min
Bit rate mode               : Constant
Bit rate                    : 384 kb/s
Channel(s)                  : 6 channels
Channel layout              : L R C LFE Ls Rs
Sampling rate               : 48.0 kHz
Frame rate                  : 31.250 FPS (1536 SPF)
Compression mode            : Lossy
Stream size                 : 269 MiB (4%)
Title                       : iTunes
Language                    : Russian
Service kind                : Complete Main
Default                     : Yes
Forced                      : Yes

Audio #2
ID                          : 3
Format                      : E-AC-3
Format/Info                 : Enhanced AC-3
Commercial name             : Dolby Digital Plus
Codec ID                    : A_EAC3
Duration                    : 1 h 37 min
Bit rate mode               : Constant
Bit rate                    : 640 kb/s
Channel(s)                  : 6 channels
Channel layout              : L R C LFE Ls Rs
Sampling rate               : 48.0 kHz
Frame rate                  : 31.250 FPS (1536 SPF)
Compression mode            : Lossy
Stream size                 : 448 MiB (7%)
Title                       : Original
Language                    : English
Service kind                : Complete Main
Default                     : No
Forced                      : No

Text #1
ID                          : 4
Format                      : UTF-8
Codec ID                    : S_TEXT/UTF8
Codec ID/Info               : UTF-8 Plain Text
Duration                    : 1 h 27 min
Bit rate                    : 4 b/s
Count of elements           : 66
Stream size                 : 3.03 KiB (0%)
Title                       : Forced
Language                    : Russian
Default                     : Yes
Forced                      : Yes

Text #2
ID                          : 5
Format                      : UTF-8
Codec ID                    : S_TEXT/UTF8
Codec ID/Info               : UTF-8 Plain Text
Duration                    : 1 h 28 min
Bit rate                    : 108 b/s
Count of elements           : 1270
Stream size                 : 70.5 KiB (0%)
Title                       : Full [Chrevodoll]
Language                    : Russian
Default                     : No
Forced                      : No

Text #3
ID                          : 6
Format                      : UTF-8
Codec ID                    : S_TEXT/UTF8
Codec ID/Info               : UTF-8 Plain Text
Duration                    : 1 h 29 min
Bit rate                    : 72 b/s
Count of elements           : 1639
Stream size                 : 47.6 KiB (0%)
Title                       : SDH
Language                    : English
Default                     : No
Forced                      : No



Скриншоты:
[+] Всего файлов в раздаче - 1:
Guns.Akimbo.2019.AMZN.WEB-DL.1080p.seleZen.mkv6.35 GB

Показать еще раздачи по запросу пушки:
2020-04-21 U Пушки Акимбо / Guns Akimbo (2019) BDRemux 1080p от селезень | D, P | iTunes 27.13 GB ↑ 48 ↓ 29
2020-04-19 U Пушки Акимбо / Guns Akimbo (2019) BDRip 1080p от ELEKTRI4KA | iTunes 10.10 GB ↑ 28 ↓ 16
2020-04-19 U Пушки Акимбо / Guns Akimbo (2019) BDRip 720p от ELEKTRI4KA | iTunes 5.32 GB ↑ 53 ↓ 25
2020-04-18 U Пушки Акимбо / Guns Akimbo (2019) HDRip от MegaPeer | iTunes 1.46 GB ↑ 2725 ↓ 124
2020-04-18 U Пушки Акимбо / Guns Akimbo (2019) BDRip 1080p от селезень | D, P | iTunes 9.52 GB ↑ 168 ↓ 153
2020-03-28 U Пушки Акимбо / Guns Akimbo (2019) WEB-DLRip от Scarabey | iTunes 1.40 GB ↑ 57 ↓ 22
2020-03-27 U Пушки Акимбо / Guns Akimbo (2019) WEB-DL 1080p | D, P, L, L2, A 7.49 GB ↑ 33 ↓ 17

Отзывы
Зарегистрируйтесь чтобы добавить комментарий.
Обратная связь
Copyleft ©