↑↓torrent.by
Поиск
Логин: Регистрация
Пароль: Восстановить пароль

Охота / The Hunt (2020) WEB-DLRip-AVC | HDrezka Studio

Скачать ohota-the-hunt-2020-web-dlrip-avc-hdrezka-studio.torrent
U Магнитная ссылка Размер: 1.40 GB Раздают: 135 Качают: 37 Добавлен: 2020-03-26 14:04:45
Охота / The Hunt (2020) WEB-DLRip-AVC | HDrezka Studio

Название: Охота
Оригинальное название: The Hunt
Год выхода: 2020
Жанр:  Ужасы, триллер, боевик
Режиссер: Крэйг Зобел
В ролях: Бетти Гилпин, Хилари Суэнк, Айк Баринхолц, Уэйн Дювалл, Итан Сапли, Эмма Робертс, Кристофер Берри, Стерджил Симпсон, Кейт Ноулин, Эми Мэдиган, Рид Бирни, Гленн Хоуертон, Стив Култер, Дин Уэст, Винс Писани, Тери Уайбл, Стив Мокейт, Сильвия Грэйс Крим, Джейсон Киркпатрик, Мэйкон Блэр, Дж.С. МакКензи, Татасэй Янг, Ханна Калуэлл, Джим Клок, Усман Элли, Уолкер Бэбингтон, Ариэль Элиас, Александр Бабара и т.д.

О фильме:
Группа обеспеченных людей решает ради забавы похитить двенадцать обычных людей и заставить их выживать в недружелюбной среде, где на них объявлена жестокая охота. Но они не подозревают, что у них на пути стоит отважная Кристал, которая знает об охоте гораздо больше, чем кажется на первый взгляд.

Страна: США
Студия: Blumhouse Productions, White Rabbit
Продолжительность: 01:30:02
Перевод: Профессиональный (многоголосый закадровый) - HDrezka Studio

Файл
Формат: MKV
Качество: WEB-DLRip-AVC
Видео: MPEG-4 AVC, 1008x420 (2.40:1), 23.976 fps, ~1288 kbps avg, 0.127 bit/pixel
Аудио 1: 48 kHz, AC3 Dolby Digital, 3/2 (L,C,R,l,r) + LFE ch, ~448 kbps avg HDRezka Studio
Аудио 2: 48 kHz, AC3 Dolby Digital, 3/2 (L,C,R,l,r) + LFE ch, ~448 kbps avg Original
Субтитры: Русские (Forced, Full), английские

*** В переводе присутствует ненормативная лексика!


[+] M/I
Format                      : Matroska
Format version              : Version 2
File size                   : 1.40 GiB
Duration                    : 1 h 30 min
Overall bit rate            : 2 229 kb/s
Movie name                  : Охота (2020) WEB-DLRip-AVC_ivanes
Encoded date                : UTC 2020-03-25 15:02:49
Writing application         : mkvmerge v4.4.0 ('Die Wiederkehr') сборка от Jan  3 2011 21:40:45
Writing library             : libebml v1.0.0 + libmatroska v1.0.0
Cover                       : Yes
Attachments                 : cover.jpg

Video
ID                          : 1
Format                      : AVC
Format/Info                 : Advanced Video Codec
Format profile              : High@L4.1
Format settings             : CABAC / 11 Ref Frames
Format settings, CABAC      : Yes
Format settings, Reference  : 11 frames
Codec ID                    : V_MPEG4/ISO/AVC
Duration                    : 1 h 30 min
Bit rate                    : 1 288 kb/s
Width                       : 1 008 pixels
Height                      : 420 pixels
Display aspect ratio        : 2.40:1
Frame rate mode             : Constant
Frame rate                  : 23.976 (24000/1001) FPS
Color space                 : YUV
Chroma subsampling          : 4:2:0
Bit depth                   : 8 bits
Scan type                   : Progressive
Bits/(Pixel*Frame)          : 0.127
Stream size                 : 830 MiB (58%)
Title                       : Rip by ivanes
Writing library             : x264 core 159 r2991 1771b55
Encoding settings           : cabac=1 / ref=11 / deblock=1:-3:-3 / analyse=0x3:0x113 / me=umh / subme=10 / psy=1 / psy_rd=1.00:0.00 / mixed_ref=1 / me_range=32 / chroma_me=1 / trellis=2 / 8x8dct=1 / cqm=0 / deadzone=21,11 / fast_pskip=0 / chroma_qp_offset=-2 / threads=12 / lookahead_threads=3 / sliced_threads=0 / nr=0 / decimate=1 / interlaced=0 / bluray_compat=0 / constrained_intra=0 / bframes=12 / b_pyramid=2 / b_adapt=2 / b_bias=0 / direct=1 / weightb=1 / open_gop=0 / weightp=2 / keyint=240 / keyint_min=23 / scenecut=40 / intra_refresh=0 / rc_lookahead=60 / rc=crf / mbtree=1 / crf=16.8 / qcomp=0.60 / qpmin=0 / qpmax=69 / qpstep=4 / vbv_maxrate=50000 / vbv_bufsize=62500 / crf_max=0.0 / nal_hrd=none / filler=0 / ip_ratio=1.40 / aq=1:1.00
Default                     : Yes
Forced                      : No
Statistics Tags Issue       : mkvmerge v29.0.0 ('Like It Or Not') 64-bit 2020-03-25 14:57:21 / mkvmerge v4.4.0 ('Die Wiederkehr') сборка от Jan  3 2011 21:40:45 2020-03-25 15:02:49
FromStats_BitRate           : 1330433
FromStats_Duration          : 01:30:02.814000000
FromStats_FrameCount        : 129538
FromStats_StreamSize        : 898510670

Audio #1
ID                          : 2
Format                      : AC-3
Format/Info                 : Audio Coding 3
Commercial name             : Dolby Digital
Codec ID                    : A_AC3
Duration                    : 1 h 30 min
Bit rate mode               : Constant
Bit rate                    : 448 kb/s
Channel(s)                  : 6 channels
Channel layout              : L R C LFE Ls Rs
Sampling rate               : 48.0 kHz
Frame rate                  : 31.250 FPS (1536 SPF)
Compression mode            : Lossy
Stream size                 : 289 MiB (20%)
Title                       : HDRezka Studio
Language                    : Russian
Service kind                : Complete Main
Default                     : Yes
Forced                      : No

Audio #2
ID                          : 3
Format                      : AC-3
Format/Info                 : Audio Coding 3
Commercial name             : Dolby Digital
Codec ID                    : A_AC3
Duration                    : 1 h 30 min
Bit rate mode               : Constant
Bit rate                    : 448 kb/s
Channel(s)                  : 6 channels
Channel layout              : L R C LFE Ls Rs
Sampling rate               : 48.0 kHz
Frame rate                  : 31.250 FPS (1536 SPF)
Compression mode            : Lossy
Stream size                 : 289 MiB (20%)
Title                       : Original
Language                    : English
Service kind                : Complete Main
Default                     : No
Forced                      : No

Text #1
ID                          : 4
Format                      : UTF-8
Codec ID                    : S_TEXT/UTF8
Codec ID/Info               : UTF-8 Plain Text
Title                       : Forced
Language                    : Russian
Default                     : Yes
Forced                      : No

Text #2
ID                          : 5
Format                      : UTF-8
Codec ID                    : S_TEXT/UTF8
Codec ID/Info               : UTF-8 Plain Text
Title                       : Full
Language                    : Russian
Default                     : No
Forced                      : No

Text #3
ID                          : 6
Format                      : UTF-8
Codec ID                    : S_TEXT/UTF8
Codec ID/Info               : UTF-8 Plain Text
Title                       : Full
Language                    : English
Default                     : No
Forced                      : No

Text #4
ID                          : 7
Format                      : UTF-8
Codec ID                    : S_TEXT/UTF8
Codec ID/Info               : UTF-8 Plain Text
Title                       : SDH
Language                    : English
Default                     : No
Forced                      : No



Скриншоты:
[+] Всего файлов в раздаче - 1:
Охота (2020) WEB-DLRip-AVC_ivanes.mkv1.40 GB

Показать еще раздачи по запросу охота:
Сегодня U Охота / The Hunt (2020) HDRip от Portablius | P 745.35 MB ↑ 35 ↓ 7
Вчера U Охота / The Hunt (2020) BDRemux 1080p | P, A 20.79 GB ↑ 44 ↓ 42
Вчера U Охота / The Hunt (2020) BDRip 1080p | P, A 7.75 GB ↑ 98 ↓ 40
Вчера U Охота / The Hunt (2020) BDRip-AVC от ExKinoRay | P, A 1.82 GB ↑ 38 ↓ 27
Вчера U Охота / The Hunt (2020) BDRip 720p от ExKinoRay | P, A 3.01 GB ↑ 38 ↓ 25
2020-05-31 U Охота / The Hunt (2020) BDRip от MegaPeer | P 1.46 GB ↑ 114 ↓ 144
2020-05-30 U Охота / The Hunt (2020) BDRip 1080p | P 6.98 GB ↑ 190 ↓ 212

Отзывы
Зарегистрируйтесь чтобы добавить комментарий.
Обратная связь
Copyleft ©