↑↓torrent.by
Поиск
Логин: Регистрация
Пароль: Восстановить пароль

Хищные птицы: Потрясающая история Харли Квинн / Birds of Prey: And the Fantabulous Emancipation of One Harley Quinn (2020) WEB-DLRip-AVC | HDrezka Studio

Скачать hischnye-pticy-potryasayuschaya-istoriya-harli-kvinn-birds-of-prey-and-the-fantabulous-emancipation-one-harley-quinn-2020-web-dlrip-avc-hdrezka-studio.torrent
U Магнитная ссылка Размер: 745.03 MB Раздают: 108 Качают: 13 Добавлен: 2020-03-26 14:04:54
Хищные птицы: Потрясающая история Харли Квинн / Birds of Prey: And the Fantabulous Emancipation of One Harley Quinn (2020) WEB-DLRip-AVC | HDrezka Studio

Название: Хищные птицы: Потрясающая история Харли Квинн
Оригинальное название: Birds of Prey: And the Fantabulous Emancipation of One Harley Quinn
Год выхода: 2020
Жанр:  Боевик, криминал, комедия
Режиссер: Кэти Янь
В ролях: Марго Робби, Джерни Смоллетт, Мэри Элизабет Уинстэд, Рози Перес, Элла Джей Баско, Юэн Макгрегор, Крис Мессина, Бояна Новакович, Али Вонг, Дэвид Ури

О фильме:
Харли Квинн рассталась с Джокером и через некоторое время сообщила об этом всему Готэму, взорвав тот самый химзавод. Девушка больше не тоскует по несостоявшимся отношениям — ей некогда, так как она также потеряла неприкосновенность, и теперь за ней охотятся разной степени криминализованности граждане, которым она когда-либо наносила вред. А в это время ставший крёстным отцом Готема Роман Сайонис очень жаждет вернуть пропавший бриллиант, который стащила у его подручного малолетняя карманница.

Страна: США
Студия: Clubhouse Pictures (II), DC Entertainment, Kroll & Co. Entertainment
Продолжительность: 01:48:50
Перевод: Профессиональный (многоголосый, закадровый) | HDrezka Studio
Внимание: присутствует ненормативная лексика!
Субтитры: Русские (Forced, Full), Английские (Full, SDH)

Файл
Формат: Matroska
Качество: WEB-DLRip-AVC
Видео: 720x300 at 23.976 fps, x264, ~892 kbps, 0.172 bpp
Аудио: AAC, 2 ch, ~64 kbps - | Русский | -
Формат субтитров: softsub (SRT)

***Релиз от: -=DoMiNo=-


[+] M/I
x264 [info]: frame I:1373  Avg QP:18.76  size: 25108
x264 [info]: frame P:38798 Avg QP:20.36  size:  9766
x264 [info]: frame B:116408 Avg QP:22.09  size:  2663
x264 [info]: consecutive B-frames:  2.7%  3.7% 10.9% 41.3% 16.2% 18.7%  2.7%  1.6%  0.4%  1.5%  0.1%  0.2%  0.1%

General
Format                      : Matroska
Format version              : Version 4
File size                   : 745 MiB
Duration                    : 1 h 48 min
Overall bit rate            : 957 kb/s
Movie name                  : Хищные птицы.(2020).WEB-DLRip-AVC.[-=DoMiNo=-]
Encoded date                : UTC 2020-03-25 17:24:09
Writing application         : mkvmerge v44.0.0 ('Domino') 64-bit
Writing library             : libebml v1.3.10 + libmatroska v1.5.2
Attachments                 : poster.jpg / poster 2.jpg

Video
ID                          : 1
Format                      : AVC
Format/Info                 : Advanced Video Codec
Format profile              : High@L4.1
Format settings             : CABAC / 12 Ref Frames
Format settings, CABAC      : Yes
Format settings, Reference  : 12 frames
Codec ID                    : V_MPEG4/ISO/AVC
Duration                    : 1 h 48 min
Bit rate                    : 892 kb/s
Width                       : 720 pixels
Height                      : 300 pixels
Display aspect ratio        : 2.40:1
Frame rate mode             : Constant
Frame rate                  : 23.976 (24000/1001) FPS
Color space                 : YUV
Chroma subsampling          : 4:2:0
Bit depth                   : 8 bits
Scan type                   : Progressive
Bits/(Pixel*Frame)          : 0.172
Stream size                 : 694 MiB (93%)
Title                       : RIP_BY_-=DoMiNo=-
Writing library             : x264 core 159 r2991 1771b55
Encoding settings           : cabac=1 / ref=12 / deblock=1:-3:-3 / analyse=0x3:0x133 / me=umh / subme=11 / psy=1 / psy_rd=1.00:0.15 / mixed_ref=1 / me_range=32 / chroma_me=1 / trellis=2 / 8x8dct=1 / cqm=0 / deadzone=21,11 / fast_pskip=0 / chroma_qp_offset=-3 / threads=6 / lookahead_threads=1 / sliced_threads=0 / nr=0 / decimate=0 / interlaced=0 / bluray_compat=0 / constrained_intra=0 / bframes=12 / b_pyramid=2 / b_adapt=2 / b_bias=0 / direct=3 / weightb=1 / open_gop=0 / weightp=2 / keyint=250 / keyint_min=23 / scenecut=40 / intra_refresh=0 / rc_lookahead=40 / rc=2pass / mbtree=0 / bitrate=892 / ratetol=1.0 / qcomp=0.65 / qpmin=0 / qpmax=69 / qpstep=4 / cplxblur=20.0 / qblur=0.5 / vbv_maxrate=50000 / vbv_bufsize=62500 / nal_hrd=none / filler=0 / ip_ratio=1.40 / pb_ratio=1.30 / aq=3:0.90
Language                    : English
Default                     : Yes
Forced                      : No
Color range                 : Limited
Color primaries             : BT.709
Transfer characteristics    : BT.709
Matrix coefficients         : BT.709

Audio
ID                          : 2
Format                      : AAC LC SBR
Format/Info                 : Advanced Audio Codec Low Complexity with Spectral Band Replication
Commercial name             : HE-AAC
Format settings             : Explicit
Codec ID                    : A_AAC-2
Duration                    : 1 h 48 min
Bit rate                    : 62.7 kb/s
Channel(s)                  : 2 channels
Channel layout              : L R
Sampling rate               : 48.0 kHz
Frame rate                  : 23.438 FPS (2048 SPF)
Compression mode            : Lossy
Stream size                 : 48.8 MiB (7%)
Title                       : HDrezka Studio
Language                    : Russian
Default                     : Yes
Forced                      : No

Text #1
ID                          : 3
Format                      : UTF-8
Codec ID                    : S_TEXT/UTF8
Codec ID/Info               : UTF-8 Plain Text
Duration                    : 1 h 32 min
Bit rate                    : 1 b/s
Count of elements           : 22
Stream size                 : 1.13 KiB (0%)
Title                       : Forced
Language                    : Russian
Default                     : No
Forced                      : Yes

Text #2
ID                          : 4
Format                      : UTF-8
Codec ID                    : S_TEXT/UTF8
Codec ID/Info               : UTF-8 Plain Text
Duration                    : 1 h 40 min
Bit rate                    : 103 b/s
Count of elements           : 1249
Stream size                 : 76.5 KiB (0%)
Title                       : Full
Language                    : Russian
Default                     : Yes
Forced                      : No

Text #3
ID                          : 5
Format                      : UTF-8
Codec ID                    : S_TEXT/UTF8
Codec ID/Info               : UTF-8 Plain Text
Duration                    : 1 h 48 min
Bit rate                    : 53 b/s
Count of elements           : 1586
Stream size                 : 42.5 KiB (0%)
Language                    : English
Default                     : No
Forced                      : No

Text #4
ID                          : 6
Format                      : UTF-8
Codec ID                    : S_TEXT/UTF8
Codec ID/Info               : UTF-8 Plain Text
Duration                    : 1 h 48 min
Bit rate                    : 75 b/s
Count of elements           : 2100
Stream size                 : 59.8 KiB (0%)
Title                       : SDH
Language                    : English
Default                     : No
Forced                      : No

Menu
00:00:00.000                : en:Studio Logos
00:00:30.000                : en:Harley Quinn's backstory
00:01:56.000                : en:Trying to get her life together
00:05:43.000                : en:A chance to be a new woman
00:07:59.000                : en:Title Sequence
00:08:07.000                : en:Meet the cop
00:10:44.000                : en:Roman Sionis aka Black Mask
00:12:41.000                : en:Life without immunity
00:17:52.000                : en:Montoya makes her case to the Captain
00:21:37.000                : en:Ambush at the station
00:23:55.000                : en:The Black Canary
00:33:39.000                : en:Caught in the cross-hairs
00:38:01.000                : en:An unexpected complication
00:40:15.000                : en:An offer to help Sionis
00:46:29.000                : en:Breaking Cass out of prison
00:53:43.000                : en:Harley and Cass bond
01:01:14.000                : en:The Huntress
01:04:24.000                : en:Roman is losing it
01:06:53.000                : en:Things get worse for Montoya
01:08:09.000                : en:The cost of business
01:14:07.000                : en:Meeting at the amusement park
01:23:50.000                : en:Girl power
01:29:53.000                : en:Black Canary has to sing
01:31:25.000                : en:There is power in fear
01:37:34.000                : en:The emancipation of everyone
01:41:24.000                : en:End Credits



Скриншоты:
[+] Всего файлов в раздаче - 1:
Хищные птицы.(2020).WEB-DLRip-AVC.[-=DoMiNo=-].mkv745.03 MB

Показать еще раздачи по запросу хищные:
2020-05-05 U Хищные птицы: Потрясающая история Харли Квинн / Birds of Prey: And the Fantabulous Emancipation of One Harley Quinn (2020) BDRip-AVC | D, P | iTunes 2.84 GB ↑ 61 ↓ 20
2020-05-05 U Хищные птицы: Потрясающая история Харли Квинн / Birds of Prey: And the Fantabulous Emancipation of One Harley Quinn (2020) UHD BDRemux 2160p от селезень | 4K | HDR | D, P | iTunes 49.66 GB ↑ 42 ↓ 55
2020-05-03 U Хищные птицы: Потрясающая история Харли Квинн / Birds of Prey: And the Fantabulous Emancipation of One Harley Quinn (2020) HDRip от MegaPeer | iTunes 1.46 GB ↑ 275 ↓ 84
2020-05-03 U Хищные птицы: Потрясающая история Харли Квинн / Birds of Prey: And the Fantabulous Emancipation of One Harley Quinn (2020) BDRip 720p от селезень | iTunes 4.32 GB ↑ 411 ↓ 160
2020-05-03 U Хищные птицы: Потрясающая история Харли Квинн / Birds of Prey: And the Fantabulous Emancipation of One Harley Quinn (2020) BDRip 1080p от селезень | D, P | iTunes 10.67 GB ↑ 87 ↓ 30
2020-04-06 U Хищные птицы: Потрясающая история Харли Квинн / Хижі пташки та фантастична Харлі Квін / Birds of Prey: And the Fantabulous Emancipation of One Harley Quinn (2020) WEB-DLRip | iTunes | UKR 2.00 GB ↑ 58 ↓ 12
2020-04-06 U Хищные птицы: Потрясающая история Харли Квинн / Birds of Prey: And the Fantabulous Emancipation of One Harley Quinn (2020) WEB-DLRip от Scarabey | iTunes 1.45 GB ↑ 107 ↓ 7

Отзывы
Зарегистрируйтесь чтобы добавить комментарий.
Обратная связь
Copyleft ©