↑↓torrent.by
Поиск
Логин: Регистрация
Пароль: Восстановить пароль

Пандемия / Pandemic (2007) HDRip-AVC от ExKinoRay | P

Скачать pandemiya-pandemic-2007-hdrip-avc-ot-exkinoray-p.torrent
U Магнитная ссылка Размер: 4.85 GB Раздают: 126 Качают: 24 Добавлен: 2020-03-26 14:04:58
Пандемия / Pandemic (2007) HDRip-AVC от ExKinoRay | P

Название: Пандемия
Оригинальное название: Pandemic
Год выхода: 2007
Жанр: боевик, триллер, драма
Режиссер: Арман Мастрояни
В ролях: Тиффани Тиссен, Френч Стюарт, Фэй Данауэй, Эрик Робертс, Винсент Спано, Боб Гантон, Майкл Масси, Шэшони Холл, Стивен Рэмси, Джо Чампа

Описание:  После того, как загадочная болезнь, напоминающая по симптомам обычную простуду, убивает молодого человека на борту самолета, следующего рейсом из Австралии в Лос-Анджелес, доктор Кайла Мартин, глава центра по контролю за вирусными инфекциями, объявляет карантин для всех пассажиров. Но смертоносный штамм этого неизвестного вируса уже распространяется, порождая панику. И начинается гонка со временем по всему миру в поисках первого зараженного.

Страна: США, Австралия
Студия: Hallmark Entertainment, Larry Levinson Productions, Robert Halmi Inc.
Продолжительность: 2 x ~ 01:22:43
Перевод: Профессиональный многоголосный, закадровый

Формат: MKV
Качество: HDRip-AVC
Видео: MPEG-4 AVC, 1024x576 (16:9), 25.000 fps, 3350 Kbps, 0.227 bit/pixel
Аудио #01: 48 kHz, AC3, 5.1, 448 Kbps | MVO | RUS |
Аудио #02: 48 kHz, AC3, 5.1, 448 Kbps | Оригинал |  ENG |

Релиз:

Автор релиза:


[+] ОтчетМедиаИнфо

General
Unique ID                                : 177199555644422995181605624412039170334 (0x854F649DED3E20339BA623E5127A491E)
Complete name                            : F:Pandemic.2007.HDRip.AVC.ExKinoRayPandemic.S01E01.2007.HDRip.AVC.ExKinoRay.mkv
Format                                   : Matroska
Format version                           : Version 2
File size                                : 2.44 GiB
Duration                                 : 1 h 22 min
Overall bit rate                         : 4 246 kb/s
Movie name                               : Pandemic E01 2007 from ExKinoRay
Encoded date                             : UTC 2020-03-26 00:48:36
Writing application                      : mkvmerge v5.6.0 ('Kenya Kane') built on May 27 2012 16:44:04
Writing library                          : libebml v1.2.3 + libmatroska v1.3.0

Video
ID                                       : 1
Format                                   : AVC
Format/Info                              : Advanced Video Codec
Format profile                           : High@L4.1
Format settings, CABAC                   : Yes
Format settings, ReFrames                : 12 frames
Codec ID                                 : V_MPEG4/ISO/AVC
Duration                                 : 1 h 22 min
Bit rate                                 : 3 350 kb/s
Width                                    : 1 024 pixels
Height                                   : 576 pixels
Display aspect ratio                     : 16:9
Frame rate mode                          : Constant
Frame rate                               : 25.000 FPS
Color space                              : YUV
Chroma subsampling                       : 4:2:0
Bit depth                                : 8 bits
Scan type                                : Progressive
Bits/(Pixel*Frame)                       : 0.227
Stream size                              : 1.87 GiB (77%)
Title                                    : Enigma
Writing library                          : x264 core 152 r2851 ba24899
Encoding settings                        : cabac=1 / ref=12 / deblock=1:-2:-2 / analyse=0x3:0x113 / me=umh / subme=10 / psy=1 / psy_rd=0.97:0.05 / mixed_ref=1 / me_range=32 / chroma_me=1 / trellis=2 / 8x8dct=1 / cqm=0 / deadzone=21,11 / fast_pskip=0 / chroma_qp_offset=-3 / threads=12 / lookahead_threads=3 / sliced_threads=0 / nr=0 / decimate=0 / interlaced=0 / bluray_compat=0 / constrained_intra=0 / bframes=10 / b_pyramid=2 / b_adapt=2 / b_bias=0 / direct=3 / weightb=1 / open_gop=0 / weightp=2 / keyint=250 / keyint_min=25 / scenecut=40 / intra_refresh=0 / rc=2pass / mbtree=0 / bitrate=3350 / ratetol=1.0 / qcomp=0.60 / qpmin=0 / qpmax=51 / qpstep=4 / cplxblur=20.0 / qblur=0.5 / ip_ratio=1.40 / pb_ratio=1.30 / aq=2:0.80
Language                                 : English
Default                                  : Yes
Forced                                   : No
Color range                              : Limited
Color primaries                          : BT.709
Transfer characteristics                 : BT.709
Matrix coefficients                      : BT.709

Audio #1
ID                                       : 2
Format                                   : AC-3
Format/Info                              : Audio Coding 3
Mode extension                           : CM (complete main)
Format settings, Endianness              : Big
Codec ID                                 : A_AC3
Duration                                 : 1 h 22 min
Bit rate mode                            : Constant
Bit rate                                 : 448 kb/s
Channel(s)                               : 6 channels
Channel positions                        : Front: L C R, Side: L R, LFE
Sampling rate                            : 48.0 kHz
Frame rate                               : 31.250 FPS (1536 spf)
Compression mode                         : Lossy
Stream size                              : 263 MiB (11%)
Title                                    : MVO
Language                                 : Russian
Default                                  : Yes
Forced                                   : No

Audio #2
ID                                       : 3
Format                                   : AC-3
Format/Info                              : Audio Coding 3
Mode extension                           : CM (complete main)
Format settings, Endianness              : Big
Codec ID                                 : A_AC3
Duration                                 : 1 h 22 min
Bit rate mode                            : Constant
Bit rate                                 : 448 kb/s
Channel(s)                               : 6 channels
Channel positions                        : Front: L C R, Side: L R, LFE
Sampling rate                            : 48.0 kHz
Frame rate                               : 31.250 FPS (1536 spf)
Compression mode                         : Lossy
Stream size                              : 263 MiB (11%)
Language                                 : English
Default                                  : No
Forced                                   : No




Скриншоты:
[+] Всего файлов в раздаче - 2:
Pandemic.S01E01.2007.HDRip.AVC.ExKinoRay.mkv2.44 GB
Pandemic.S01E02.2007.HDRip.AVC.ExKinoRay.mkv2.42 GB

Похожие раздачи по запросу - пандемия:
2020-04-04 U А. Дж. Риддл - Вымирание 1: Пандемия. Часть первая (2020) MP3 622.68 MB ↑ 31 ↓ 7
2020-04-02 U Пандемия: Коронавирус / Pandemic: Covid-19 (2020) WEBRip | LakeFilms 659.57 MB ↑ 177 ↓ 33
2020-04-02 U Пандемия: Коронавирус / Pandemic: Covid-19 (2020) WEBRip 720p | LakeFilms 1,008.79 MB ↑ 195 ↓ 100
2020-03-26 U Пандемия / Pandemic (2007) HDRip от ExKinoRay | P 2.73 GB ↑ 65 ↓ 30
2020-03-14 U Пандемия из лаборатории (2020) SATRip 1К1.29 GB ↑ 58 ↓ 15

Отзывы
Зарегистрируйтесь чтобы добавить комментарий.
Обратная связь
Copyleft ©