↑↓torrent.by
Поиск
Логин: Регистрация
Пароль: Восстановить пароль

Пушки Акимбо / Guns Akimbo (2019) WEB-DLRip-AVC | iTunes

Скачать pushki-akimbo-guns-2019-web-dlrip-avc-itunes.torrent
U Магнитная ссылка Размер: 742.81 MB Раздают: 137 Качают: 45 Добавлен: 2020-03-26 17:57:29
Пушки Акимбо / Guns Akimbo (2019) WEB-DLRip-AVC | iTunes

Название: Пушки Акимбо
Оригинальное название: Guns Akimbo
Год выхода: 2019
Жанр:  Боевик, Комедия
Режиссер: Джейсон Ли Хауден
В ролях: Дэниэл Рэдклифф, Самара Уивинг, Риз Дэрби, Нед Деннехи, Наташа Лю Бордиццо, Марк Роули, Грант Боулер, Ханако Футман, Джош Роберт Томпсон, Сет Сьостранд

О фильме:
Майлз небезосновательно считает себя неудачником: девушка бросила, а сам он работает в заштатной конторе разработчиком мобильных игр. Единственная отдушина в жизни парня — интернет-троллинг. Каждый вечер он провоцирует кого-нибудь в сети и, хорошенько поругавшись, спокойно засыпает. Однажды Майлз хамит очередному незнакомцу на сайте, где транслируются жестокие игры на выживание, и вскоре, вычислив местоположение нашего диванного героя по IP, в его дом вламывается группа отморозков. Теперь к рукам Майзла прибиты два пистолета, а сам он выставлен на поединок с психопаткой по имени Никс — безжалостной чемпионкой этих подпольных игрищ.

Страна: Великобритания, Германия, Новая Зеландия
Студия: Altitude Film Entertainment, Electric Shadow Company, The, Four Knights Film
Продолжительность: 01:37:48
Перевод: Дублированный | iTunes
Субтитры: Русские (Forced, Full), английские

Файл
Формат: Matroska
Качество: WEB-DLRip-AVC
Видео: 720x300 at 23.976 fps, x264, ~1000 kbps, 0.193 bpp
Аудио: AAC, 2 ch, ~64 kbps - | Русский |

***Релиз от: -=DoMiNo=-


[+] M/I
x264 [info]: frame I:1557  Avg QP:15.95  size: 34165
x264 [info]: frame P:36206 Avg QP:19.53  size: 10120
x264 [info]: frame B:102942 Avg QP:21.64  size:  3027
x264 [info]: consecutive B-frames:  4.0%  5.0% 11.4% 36.2% 17.7% 16.9%  4.9%  1.8%  0.6%  0.5%  0.2%  0.2%  0.6%

General
Unique ID                   : 198949539123255000043816323820755916997 (0x95AC49986ACC9D8B45B306FB52A498C5)
Complete name               : K:Пушки Акимбо.(2019).WEB-DLRip-AVC.[-=DoMiNo=-].mkv
Format                      : Matroska
Format version              : Version 4
File size                   : 743 MiB
Duration                    : 1 h 37 min
Overall bit rate            : 1 062 kb/s
Movie name                  : Пушки Акимбо.(2019).WEB-DLRip-AVC.[-=DoMiNo=-]
Encoded date                : UTC 2020-03-26 10:59:38
Writing application         : mkvmerge v44.0.0 ('Domino') 64-bit
Writing library             : libebml v1.3.10 + libmatroska v1.5.2
Attachments                 : poster.jpg / poster 2.jpg

Video
ID                          : 1
Format                      : AVC
Format/Info                 : Advanced Video Codec
Format profile              : High@L4.1
Format settings             : CABAC / 12 Ref Frames
Format settings, CABAC      : Yes
Format settings, Reference  : 12 frames
Codec ID                    : V_MPEG4/ISO/AVC
Duration                    : 1 h 37 min
Bit rate                    : 1 000 kb/s
Width                       : 720 pixels
Height                      : 300 pixels
Display aspect ratio        : 2.40:1
Frame rate mode             : Constant
Frame rate                  : 23.976 (24000/1001) FPS
Color space                 : YUV
Chroma subsampling          : 4:2:0
Bit depth                   : 8 bits
Scan type                   : Progressive
Bits/(Pixel*Frame)          : 0.193
Stream size                 : 697 MiB (94%)
Title                       : RIP_BY_-=DoMiNo=-
Writing library             : x264 core 152 r2851kMod ba24899
Encoding settings           : cabac=1 / ref=12 / deblock=1:-1:-1 / analyse=0x3:0x133 / me=umh / subme=11 / psy=1 / fade_compensate=0.00 / psy_rd=1.00:0.15 / mixed_ref=1 / me_range=32 / chroma_me=1 / trellis=2 / 8x8dct=1 / cqm=0 / deadzone=21,11 / fast_pskip=0 / chroma_qp_offset=-3 / threads=6 / lookahead_threads=1 / sliced_threads=0 / nr=0 / decimate=0 / interlaced=0 / bluray_compat=0 / constrained_intra=0 / bframes=12 / b_pyramid=2 / b_adapt=2 / b_bias=0 / direct=3 / weightb=1 / open_gop=0 / weightp=2 / keyint=250 / keyint_min=23 / scenecut=40 / intra_refresh=0 / rc_lookahead=40 / rc=2pass / mbtree=0 / bitrate=1000 / ratetol=1.0 / qcomp=0.65 / qpmin=0 / qpmax=69 / qpstep=4 / cplxblur=20.0 / qblur=0.5 / vbv_maxrate=50000 / vbv_bufsize=62500 / nal_hrd=none / filler=0 / ip_ratio=1.40 / pb_ratio=1.30 / aq=3:1.00
Language                    : English
Default                     : Yes
Forced                      : No
Color range                 : Limited
Color primaries             : BT.709
Transfer characteristics    : BT.709
Matrix coefficients         : BT.709

Audio
ID                          : 2
Format                      : AAC LC SBR
Format/Info                 : Advanced Audio Codec Low Complexity with Spectral Band Replication
Commercial name             : HE-AAC
Format settings             : Explicit
Codec ID                    : A_AAC-2
Duration                    : 1 h 37 min
Bit rate                    : 62.7 kb/s
Channel(s)                  : 2 channels
Channel layout              : L R
Sampling rate               : 48.0 kHz
Frame rate                  : 23.438 FPS (2048 SPF)
Compression mode            : Lossy
Stream size                 : 43.9 MiB (6%)
Title                       : DUB
Language                    : Russian
Default                     : Yes
Forced                      : No

Text #1
ID                          : 3
Format                      : UTF-8
Codec ID                    : S_TEXT/UTF8
Codec ID/Info               : UTF-8 Plain Text
Duration                    : 1 h 27 min
Bit rate                    : 4 b/s
Count of elements           : 66
Stream size                 : 3.03 KiB (0%)
Title                       : Forced
Language                    : Russian
Default                     : No
Forced                      : Yes

Text #2
ID                          : 4
Format                      : UTF-8
Codec ID                    : S_TEXT/UTF8
Codec ID/Info               : UTF-8 Plain Text
Duration                    : 1 h 28 min
Bit rate                    : 108 b/s
Count of elements           : 1270
Stream size                 : 70.5 KiB (0%)
Title                       : Chrevodoll
Language                    : Russian
Default                     : No
Forced                      : No

Text #3
ID                          : 5
Format                      : UTF-8
Codec ID                    : S_TEXT/UTF8
Codec ID/Info               : UTF-8 Plain Text
Duration                    : 1 h 29 min
Bit rate                    : 72 b/s
Count of elements           : 1639
Stream size                 : 47.6 KiB (0%)
Title                       : SDH
Language                    : English
Default                     : No
Forced                      : No

Menu
00:00:00.000                : en:1
00:04:15.000                : en:2
00:12:40.000                : en:3
00:22:38.000                : en:4
00:31:55.000                : en:5
00:41:14.000                : en:6
00:51:44.000                : en:7
01:01:40.000                : en:8
01:10:00.000                : en:9
01:21:25.000                : en:10
01:30:08.000                : en:11



Скриншоты:
[+] Всего файлов в раздаче - 1:
Пушки Акимбо.(2019).WEB-DLRip-AVC.[-=DoMiNo=-].mkv742.81 MB

Показать еще раздачи по запросу пушки:
2020-04-21 U Пушки Акимбо / Guns Akimbo (2019) BDRemux 1080p от селезень | D, P | iTunes 27.13 GB ↑ 56 ↓ 31
2020-04-19 U Пушки Акимбо / Guns Akimbo (2019) BDRip 1080p от ELEKTRI4KA | iTunes 10.10 GB ↑ 28 ↓ 16
2020-04-19 U Пушки Акимбо / Guns Akimbo (2019) BDRip 720p от ELEKTRI4KA | iTunes 5.32 GB ↑ 53 ↓ 25
2020-04-18 U Пушки Акимбо / Guns Akimbo (2019) HDRip от MegaPeer | iTunes 1.46 GB ↑ 2735 ↓ 124
2020-04-18 U Пушки Акимбо / Guns Akimbo (2019) BDRip 1080p от селезень | D, P | iTunes 9.52 GB ↑ 168 ↓ 153
2020-03-28 U Пушки Акимбо / Guns Akimbo (2019) WEB-DLRip от Scarabey | iTunes 1.40 GB ↑ 57 ↓ 22
2020-03-27 U Пушки Акимбо / Guns Akimbo (2019) WEB-DL 1080p | D, P, L, L2, A 7.49 GB ↑ 33 ↓ 17

Отзывы
Зарегистрируйтесь чтобы добавить комментарий.
Обратная связь
Copyleft ©