↑↓torrent.by
Поиск
Логин: Регистрация
Пароль: Восстановить пароль

Зима (2019) WEB-DLRip-AVC от ExKinoRay | iTunes

Скачать zima-2019-web-dlrip-avc-ot-exkinoray-itunes.torrent
U Магнитная ссылка Размер: 742.25 MB Раздают: 69 Качают: 25 Добавлен: 2020-03-27 04:21:13
Зима (2019) WEB-DLRip-AVC от ExKinoRay | iTunes

Название: Зима
Год выхода: 2019
Жанр:  Драма
Режиссер: Сергей Черников
В ролях: Игорь Петренко, Александр Петров, Тимофей Трибунцев, Никита Павленко, Михаил Жигалов, Дмитрий Куличков, Александр Аблязов, Никита Салопин, Алексей Демидов, Никита Абдулов

О фильме:
История развивается под новый год в небольшом подмосковном городке на фоне криминальных событий. По пути домой в чужом городе Александр со своим отцом ветераном ВОВ попадают в случайные трагические обстоятельства, при которых на АЗС оба получают тяжелые ранения от пьяных малолетних преступников. Отец Александра попадает в реанимацию, а он получив легкие ранения, становится опасным свидетелем, которого необходимо устранить.

Страна: Россия
Студия: Кинотрест, Лук-фильм
Продолжительность: 01:19:02
Язык: Русский

Файл
Формат: MKV
Качество: WEB-DLRip-AVC
Видео: MPEG-4 AVC, 784x328, - 1242 Кбит/с
Аудио:  AAC-HE, 2 ch, - 76 Кбит/с
Субтитры: Нет


[+] MI
Общее
Уникальный идентификатор : 256653037233383893454804033558372379262 (0xC11593B47971821C9713A867A0BF6A7E)
Полное имя : D:MOVIESZima.2019.WEB-DLRip-AVC.ExKinoRay.mkv
Формат : Matroska
Версия формата : Version 4 / Version 2
Размер файла : 742 Мбайт
Продолжительность : 1 ч. 19 м.
Общий поток : 1313 Кбит/сек
Дата кодирования : UTC 2020-03-26 18:11:04
Программа кодирования : mkvmerge v35.0.0 ('All The Love In The World') 64-bit
Библиотека кодирования : libebml v1.3.9 + libmatroska v1.5.2

Видео
Идентификатор : 1
Формат : AVC
Формат/Информация : Advanced Video Codec
Профиль формата : High@L4.1
Параметр CABAC формата : Да
Параметр RefFrames формата : 12 кадров
Идентификатор кодека : V_MPEG4/ISO/AVC
Продолжительность : 1 ч. 19 м.
Битрейт : 1242 Кбит/сек
Ширина : 784 пикселя
Высота : 328 пикселей
Соотношение сторон : 2,40:1
Режим частоты кадров : Постоянный
Частота кадров : 24,000 кадра/сек
Цветовое пространство : YUV
Субдискретизация насыщенности : 4:2:0
Битовая глубина : 8 бит
Тип развёртки : Прогрессивная
Бит/(Пиксели*Кадры) : 0.201
Размер потока : 698 Мбайт (94%)
Библиотека кодирования : x264 core 159 r2991 1771b55
Настройки программы : cabac=1 / ref=12 / deblock=1:-3:-2 / analyse=0x3:0x133 / me=umh / subme=10 / psy=1 / psy_rd=1.00:0.13 / mixed_ref=1 / me_range=32 / chroma_me=1 / trellis=2 / 8x8dct=1 / cqm=0 / deadzone=21,11 / fast_pskip=0 / chroma_qp_offset=-3 / threads=6 / lookahead_threads=1 / sliced_threads=0 / nr=0 / decimate=0 / interlaced=0 / bluray_compat=0 / constrained_intra=0 / bframes=12 / b_pyramid=2 / b_adapt=2 / b_bias=0 / direct=3 / weightb=1 / open_gop=0 / weightp=2 / keyint=240 / keyint_min=24 / scenecut=40 / intra_refresh=0 / rc_lookahead=40 / rc=2pass / mbtree=1 / bitrate=1242 / ratetol=1.0 / qcomp=0.70 / qpmin=0 / qpmax=69 / qpstep=4 / cplxblur=20.0 / qblur=0.5 / ip_ratio=1.40 / aq=3:1.00
Default : Да
Forced : Нет

Аудио
Идентификатор : 2
Формат : AAC
Формат/Информация : Advanced Audio Codec
Профиль формата : HE-AAC / LC
Идентификатор кодека : A_AAC
Продолжительность : 1 ч. 19 м.
Битрейт : 76,0 Кбит/сек
Каналы : 2 канала
Расположение каналов : Front: L R
Частота : 48,0 КГц / 24,0 КГц
Частота кадров : 23,438 кадра/сек (1024 SPF)
Метод сжатия : С потерями
Задержка видео : 31 мс.
Размер потока : 43,0 Мбайт (6%)
Default : Да
Forced : Нет

Меню
00:00:00.000 : en:Глава 1
00:08:57.666 : en:Глава 2
00:17:17.624 : en:Глава 3
00:25:45.457 : en:Глава 4
00:34:05.373 : en:Глава 5
00:42:45.748 : en:Глава 6
00:50:51.539 : en:Глава 7
00:59:24.164 : en:Глава 8
01:06:45.539 : en:Глава 9



Скриншоты:
[+] Всего файлов в раздаче - 1:
Zima.2019.WEB-DLRip-AVC.ExKinoRay.mkv742.25 MB

Похожие раздачи по запросу - зима:
2020-03-28 U Зима (2019) WEB-DLRip от GeneralFilm | iTunes 745.15 MB ↑ 90 ↓ 17
2020-03-27 U Зима (2019) WEB-DLRip от Files-x | iTunes 1.37 GB ↑ 335 ↓ 85
2020-03-27 U Зима (2019) WEB-DL 1080p | iTunes 1К2.71 GB ↑ 1119 ↓ 487
2020-03-27 U Зима (2019) WEB-DLRip-AVC от Files-x | iTunes 1.46 GB ↑ 72 ↓ 46
2020-03-26 U Зима (2019) WEB-DLRip-AVC | iTunes 1.46 GB ↑ 756 ↓ 327

Отзывы
Зарегистрируйтесь чтобы добавить комментарий.
Обратная связь
Copyleft ©