↑↓torrent.by
Поиск
Логин: Регистрация
Пароль: Восстановить пароль

Пришелец (2018) HDRip | GER Transfer | Лицензия

Скачать prishelec-2018-hdrip-ger-transfer-licenziya.torrent
U Магнитная ссылка Размер: 746.68 MB Раздают: 59 Качают: 6 Добавлен: 2020-03-27 04:22:33
Пришелец (2018) HDRip | GER Transfer | Лицензия

Название:  Пришелец
Год выхода: 2018
Жанр:  Фантастика, драма
Режиссёр: Александр Куликов
В ролях: Андрей Смоляков, Юрий Цурило, Григорий Сиятвинда, Максим Виторган, Александр Куликов, Анна Банщикова, Евгения Шипова

О фильме: В результате цепи трагических случайностей на далекой планете в одиночестве оказывается космонавт. Его жизнь находится в постоянной опасности. Нечто необъяснимое, вступившее с ним в контакт, навсегда изменит его. С этой минуты он станет потерянным и для себя и для людей. И сколько раз ему придется умереть, чтобы доказать, что он жив...

Страна: Россия
Студия: Кинокомпания «Союз Маринс Групп»
Продолжительность: 01:30:22
Перевод: Не требуется (оригинальный)

Файл
Формат: avi
Качество: HDRip (BDRip720p)
Видео: XviD, 656х272, 24fps, 1018kbps
Аудио: MPEG Layer 3, 2ch, 48000Hz, 112kbps

Релиз:


[+] MediaInfo

Общее
Полное имя                               : Prishelec.2018.O.HDRip.700.CurHaJI.avi
Формат                                   : AVI
Формат/Информация                        : Audio Video Interleave
Размер файла                             : 747 Мбайт
Продолжительность                        : 1 ч. 30 м.
Общий поток                              : 1155 Кбит/сек
Название фильма                          : Prishelec.2018.O.HDRip.700.CurHaJI
Программа кодирования                    : VirtualDubMod 1.5.10.3 | www.virtualdub-fr.org || (build 2550/release)
Библиотека кодирования                   : VirtualDub build 35491/release

Видео
Идентификатор                            : 0
Формат                                   : MPEG-4 Visual
Профиль формата                          : Advanced Simple@L5
Параметр BVOP формата                    : 1
Параметр QPel формата                    : Нет
Параметр GMC формата                     : Без точки перехода
Параметр матрицы формата                 : Выборочная
Идентификатор кодека                     : XVID
Идентификатор кодека/Подсказка           : XviD
Продолжительность                        : 1 ч. 30 м.
Битрейт                                  : 1018 Кбит/сек
Ширина                                   : 656 пикселей
Высота                                   : 272 пикселя
Соотношение сторон                       : 2,40:1
Частота кадров                           : 24,000 кадра/сек
Цветовое пространство                    : YUV
Субдискретизация насыщенности            : 4:2:0
Битовая глубина                          : 8 бит
Тип развёртки                            : Прогрессивная
Метод сжатия                             : С потерями
Бит/(Пиксели*Кадры)                      : 0.238
Размер потока                            : 658 Мбайт (88%)
Библиотека кодирования                   : XviD 73

Аудио
Идентификатор                            : 1
Формат                                   : MPEG Audio
Версия формата                           : Version 1
Профиль формата                          : Layer 3
Идентификатор кодека                     : 55
Идентификатор кодека/Подсказка           : MP3
Продолжительность                        : 1 ч. 30 м.
Вид битрейта                             : Постоянный
Битрейт                                  : 128 Кбит/сек
Каналы                                   : 2 канала
Частота                                  : 48,0 КГц
Метод сжатия                             : С потерями
Размер потока                            : 82,7 Мбайт (11%)
Выравнивание                             : Соединение по промежуткам
Продолжительность промежутка             : 42  мс. (1,00 видеокадр)
Время предзагрузки промежутка            : 504  мс.
Библиотека кодирования                   : LAME3.99r
Настройки программы                      : -m s -V 4 -q 2 -lowpass 17 -b 128



Скриншоты:
[+] Всего файлов в раздаче - 1:
Prishelec.2018.O.HDRip.700.CurHaJI.avi746.68 MB

Похожие раздачи по запросу - пришелец:
2020-04-26 U Пришелец / Impostor (2001) BDRip-AVC от ExKinoRay | D, P2 | Театральная версия 744.64 MB ↑ 69 ↓ 17
2020-02-07 U Сумасшедший пришелец / Feng kuang de wai xing ren / Crazy Alien (2019) WEBRip 1080p | L 2.31 GB ↑ 227 ↓ 81
2019-11-22 U Пришелец (2018) BDRip | GER Transfer | Лицензия 1.46 GB ↑ 289 ↓ 66

Отзывы
Зарегистрируйтесь чтобы добавить комментарий.
Обратная связь
Copyleft ©