↑↓torrent.by
Поиск
Логин: Регистрация
Пароль: Восстановить пароль

Пушки Акимбо / Guns Akimbo (2019) WEB-DL 1080p | D, P, L, L2, A

Скачать pushki-akimbo-guns-2019-web-dl-1080p-d-p-l-l2-a.torrent
U Магнитная ссылка Размер: 7.49 GB Раздают: 33 Качают: 17 Добавлен: 2020-03-27 04:23:23
Пушки Акимбо / Guns Akimbo (2019) WEB-DL 1080p | D, P, L, L2, A

Название: Пушки Акимбо
Оригинальное название: Guns Akimbo
Год выхода: 2019
Жанр: Боевик, Комедия
Режиссер: Джейсон Ли Хауден
В ролях: Дэниэл Рэдклифф, Самара Уивинг, Риз Дэрби, Нед Деннехи, Наташа Лю Бордиццо, Марк Роули, Грант Боулер, Ханако Футман, Джош Роберт Томпсон, Сет Сьостранд

О фильме:
Майлз небезосновательно считает себя неудачником: девушка бросила, а сам он работает в заштатной конторе разработчиком мобильных игр. Единственная отдушина в жизни парня — интернет-троллинг. Каждый вечер он провоцирует кого-нибудь в сети и, хорошенько поругавшись, спокойно засыпает. Однажды Майлз хамит очередному незнакомцу на сайте, где транслируются жестокие игры на выживание, и вскоре, вычислив местоположение нашего диванного героя по IP, в его дом вламывается группа отморозков. Теперь к рукам Майзла прибиты два пистолета, а сам он выставлен на поединок с психопаткой по имени Никс — безжалостной чемпионкой этих подпольных игрищ.

 
Страна: Великобритания, Германия, Новая Зеландия
Студия: Altitude Film Entertainment, Electric Shadow Company, The, Four Knights Film
Продолжительность: 01:37:48
Перевод: Дублированный (iTunes), Профессиональный (многоголосый), Любительский (многоголосый), Любительский (двухголосый), Авторский (одноголосый)
Внимание: во всех переводах кроме дубляжа, ненормативная лексика

Файл
Качество: WEB-DL 1080p | AMZN
Видео: AVC/H.264, 1920x800, ~8269 Kbps, 23,976 fps
Звук:
Аудио 1: AC3, 6 ch, 384 Kbps - Русский (DUB)
Аудио 2: AC3, 6 ch, 448 Kbps - Русский (MVO HDrezka Studio)
Аудио 3: E-AC3, 6 ch, 640 Kbps - Русский (MVO Mallorn)
Аудио 4: AC3, 6 ch, 384 Kbps - Русский (AVO М.Яроцкий)
Аудио 5: AC3, 2 ch, 192 Kbps - Русский (DVO LakeFilms )
Аудио 6: E-AC3, 6 ch, 640 Kbps - Английский
Субтитры: русские (Forced, Full), английские (Full, SDH)


[+] Mediainfo
Общее
Уникальный идентификатор                 : 242450529312385463488286096779138894639 (0xB66646006518CCA331327C3216F50B2F)
Полное имя                               : Guns_Akimbo_2019_AMZN_WEB-DL_1080p.mkv
Формат                                   : Matroska
Версия формата                           : Version 4
Размер файла                             : 7,49 Гбайт
Продолжительность                        : 1 ч. 37 м.
Общий поток                              : 11,0 Мбит/сек
Дата кодирования                         : UTC 2020-03-26 17:27:05
Программа кодирования                    : mkvmerge v23.0.0 ('The Bride Said No') 64-bit
Библиотека кодирования                   : libebml v1.3.6 + libmatroska v1.4.9

Видео
Идентификатор                            : 1
Формат                                   : AVC
Формат/Информация                        : Advanced Video Codec
Профиль формата                          : High@L4
Настройки формата                        : CABAC / 4 Ref Frames
Параметр CABAC формата                   : Да
Параметр RefFrames формата               : 4 кадра
Идентификатор кодека                     : V_MPEG4/ISO/AVC
Продолжительность                        : 1 ч. 37 м.
Вид битрейта                             : Постоянный
Битрейт                                  : 8269 Кбит/сек
Номинальный битрейт                      : 10000 Кбит/сек
Ширина                                   : 1920 пикселей
Высота                                   : 800 пикселей
Соотношение сторон                       : 2,40:1
Режим частоты кадров                     : Постоянный
Частота кадров                           : 23,976 (24000/1001) кадра/сек
Цветовое пространство                    : YUV
Субдискретизация насыщенности            : 4:2:0
Битовая глубина                          : 8 бит
Тип развёртки                            : Прогрессивная
Бит/(Пиксели*Кадры)                      : 0.225
Размер потока                            : 5,65 Гбайт (75%)
Язык                                     : English
Default                                  : Да
Forced                                   : Нет
Цветовой диапазон                        : Limited
Основные цвета                           : BT.709
Характеристики трансфера                 : BT.709
Коэффициенты матрицы                     : BT.709

Аудио #1
Идентификатор                            : 2
Формат                                   : AC-3
Формат/Информация                        : Audio Coding 3
Коммерческое название                    : Dolby Digital
Идентификатор кодека                     : A_AC3
Продолжительность                        : 1 ч. 37 м.
Вид битрейта                             : Постоянный
Битрейт                                  : 384 Кбит/сек
Каналы                                   : 6 каналов
ChannelLayout                            : L R C LFE Ls Rs
Частота                                  : 48,0 КГц
Частота кадров                           : 31,250 кадров/сек (1536 SPF)
Метод сжатия                             : С потерями
Размер потока                            : 269 Мбайт (4%)
Заголовок                                : DUB | iTunes
Язык                                     : Russian
ServiceKind                              : Complete Main
Default                                  : Да
Forced                                   : Нет

Аудио #2
Идентификатор                            : 3
Формат                                   : AC-3
Формат/Информация                        : Audio Coding 3
Коммерческое название                    : Dolby Digital
Идентификатор кодека                     : A_AC3
Продолжительность                        : 1 ч. 37 м.
Вид битрейта                             : Постоянный
Битрейт                                  : 448 Кбит/сек
Каналы                                   : 6 каналов
ChannelLayout                            : L R C LFE Ls Rs
Частота                                  : 48,0 КГц
Частота кадров                           : 31,250 кадров/сек (1536 SPF)
Метод сжатия                             : С потерями
Размер потока                            : 313 Мбайт (4%)
Заголовок                                : HDrezka Studio
Язык                                     : Russian
ServiceKind                              : Complete Main
Default                                  : Нет
Forced                                   : Нет

Аудио #3
Идентификатор                            : 4
Формат                                   : E-AC-3
Формат/Информация                        : Enhanced AC-3
Коммерческое название                    : Dolby Digital Plus
Идентификатор кодека                     : A_EAC3
Продолжительность                        : 1 ч. 37 м.
Вид битрейта                             : Постоянный
Битрейт                                  : 640 Кбит/сек
Каналы                                   : 6 каналов
ChannelLayout                            : L R C LFE Ls Rs
Частота                                  : 48,0 КГц
Частота кадров                           : 31,250 кадров/сек (1536 SPF)
Метод сжатия                             : С потерями
Размер потока                            : 448 Мбайт (6%)
Заголовок                                : Mallorn
Язык                                     : Russian
ServiceKind                              : Complete Main
Default                                  : Нет
Forced                                   : Нет

Аудио #4
Идентификатор                            : 5
Формат                                   : AC-3
Формат/Информация                        : Audio Coding 3
Коммерческое название                    : Dolby Digital
Идентификатор кодека                     : A_AC3
Продолжительность                        : 1 ч. 37 м.
Вид битрейта                             : Постоянный
Битрейт                                  : 384 Кбит/сек
Каналы                                   : 6 каналов
ChannelLayout                            : L R C LFE Ls Rs
Частота                                  : 48,0 КГц
Частота кадров                           : 31,250 кадров/сек (1536 SPF)
Метод сжатия                             : С потерями
Размер потока                            : 269 Мбайт (4%)
Заголовок                                : AVO Kyberpunk
Язык                                     : Russian
ServiceKind                              : Complete Main
Default                                  : Нет
Forced                                   : Нет

Аудио #5
Идентификатор                            : 6
Формат                                   : AC-3
Формат/Информация                        : Audio Coding 3
Коммерческое название                    : Dolby Digital
Идентификатор кодека                     : A_AC3
Продолжительность                        : 1 ч. 37 м.
Вид битрейта                             : Постоянный
Битрейт                                  : 192 Кбит/сек
Каналы                                   : 2 канала
ChannelLayout                            : L R
Частота                                  : 48,0 КГц
Частота кадров                           : 31,250 кадров/сек (1536 SPF)
Метод сжатия                             : С потерями
Размер потока                            : 134 Мбайт (2%)
Заголовок                                : LakeFilms
Язык                                     : Russian
ServiceKind                              : Complete Main
Default                                  : Нет
Forced                                   : Нет

Аудио #6
Идентификатор                            : 7
Формат                                   : E-AC-3
Формат/Информация                        : Enhanced AC-3
Коммерческое название                    : Dolby Digital Plus
Идентификатор кодека                     : A_EAC3
Продолжительность                        : 1 ч. 37 м.
Вид битрейта                             : Постоянный
Битрейт                                  : 640 Кбит/сек
Каналы                                   : 6 каналов
ChannelLayout                            : L R C LFE Ls Rs
Частота                                  : 48,0 КГц
Частота кадров                           : 31,250 кадров/сек (1536 SPF)
Метод сжатия                             : С потерями
Размер потока                            : 448 Мбайт (6%)
Язык                                     : English
ServiceKind                              : Complete Main
Default                                  : Нет
Forced                                   : Нет

Текст #1
Идентификатор                            : 8
Формат                                   : UTF-8
Идентификатор кодека                     : S_TEXT/UTF8
Идентификатор кодека/Информация          : UTF-8 Plain Text
Продолжительность                        : 1 ч. 27 м.
Битрейт                                  : 4 бит/сек
ElementCount                             : 66
Размер потока                            : 3,03 Кбайт (0%)
Заголовок                                : Forced
Язык                                     : Russian
Default                                  : Да
Forced                                   : Нет

Текст #2
Идентификатор                            : 9
Формат                                   : UTF-8
Идентификатор кодека                     : S_TEXT/UTF8
Идентификатор кодека/Информация          : UTF-8 Plain Text
Продолжительность                        : 1 ч. 28 м.
Битрейт                                  : 108 бит/сек
ElementCount                             : 1270
Размер потока                            : 70,5 Кбайт (0%)
Заголовок                                : Chrevodoll
Язык                                     : Russian
Default                                  : Нет
Forced                                   : Нет

Текст #3
Идентификатор                            : 10
Формат                                   : UTF-8
Идентификатор кодека                     : S_TEXT/UTF8
Идентификатор кодека/Информация          : UTF-8 Plain Text
Продолжительность                        : 1 ч. 29 м.
Битрейт                                  : 66 бит/сек
ElementCount                             : 1363
Размер потока                            : 43,6 Кбайт (0%)
Язык                                     : English
Default                                  : Нет
Forced                                   : Нет

Текст #4
Идентификатор                            : 11
Формат                                   : UTF-8
Идентификатор кодека                     : S_TEXT/UTF8
Идентификатор кодека/Информация          : UTF-8 Plain Text
Продолжительность                        : 1 ч. 29 м.
Битрейт                                  : 72 бит/сек
ElementCount                             : 1639
Размер потока                            : 47,6 Кбайт (0%)
Заголовок                                : SDH
Язык                                     : English
Default                                  : Нет
Forced                                   : Нет

Меню
00:00:00.000                             : en:1
00:04:15.000                             : en:2
00:12:40.000                             : en:3
00:22:38.000                             : en:4
00:31:55.000                             : en:5
00:41:14.000                             : en:6
00:51:44.000                             : en:7
01:01:40.000                             : en:8
01:10:00.000                             : en:9
01:21:25.000                             : en:10
01:30:08.000                             : en:11



Скриншоты:
[+] Всего файлов в раздаче - 1:
Guns_Akimbo_2019_AMZN_WEB-DL_1080p.mkv7.49 GB

Показать еще раздачи по запросу пушки:
2020-04-21 U Пушки Акимбо / Guns Akimbo (2019) BDRemux 1080p от селезень | D, P | iTunes 27.13 GB ↑ 49 ↓ 29
2020-04-19 U Пушки Акимбо / Guns Akimbo (2019) BDRip 1080p от ELEKTRI4KA | iTunes 10.10 GB ↑ 28 ↓ 16
2020-04-19 U Пушки Акимбо / Guns Akimbo (2019) BDRip 720p от ELEKTRI4KA | iTunes 5.32 GB ↑ 53 ↓ 25
2020-04-18 U Пушки Акимбо / Guns Akimbo (2019) HDRip от MegaPeer | iTunes 1.46 GB ↑ 2728 ↓ 124
2020-04-18 U Пушки Акимбо / Guns Akimbo (2019) BDRip 1080p от селезень | D, P | iTunes 9.52 GB ↑ 168 ↓ 153
2020-03-28 U Пушки Акимбо / Guns Akimbo (2019) WEB-DLRip от Scarabey | iTunes 1.40 GB ↑ 57 ↓ 22
2020-03-26 U Пушки Акимбо / Guns Akimbo (2019) WEB-DLRip-AVC | iTunes 742.81 MB ↑ 136 ↓ 45

Отзывы
Зарегистрируйтесь чтобы добавить комментарий.
Обратная связь
Copyleft ©