↑↓torrent.by
Поиск
Логин: Регистрация
Пароль: Восстановить пароль

Зима (2019) WEB-DL 1080p | iTunes

Скачать zima-2019-web-dl-1080p-itunes.torrent
U Магнитная ссылка Размер: 2.71 GB Раздают: 1120 Качают: 487 Добавлен: 2020-03-27 18:20:12
Зима (2019) WEB-DL 1080p | iTunes

Название: Зима
Год выхода: 2019
Жанр:  Драма
Режиссер: Сергей Черников
В ролях: Игорь Петренко, Александр Петров, Тимофей Трибунцев, Никита Павленко, Михаил Жигалов, Дмитрий Куличков, Александр Аблязов, Никита Салопин, Алексей Демидов, Никита Абдулов

О фильме:
История развивается под новый год в небольшом подмосковном городке на фоне криминальных событий. По пути домой в чужом городе Александр со своим отцом ветераном ВОВ попадают в случайные трагические обстоятельства, при которых на АЗС оба получают тяжелые ранения от пьяных малолетних преступников. Отец Александра попадает в реанимацию, а он получив легкие ранения, становится опасным свидетелем, которого необходимо устранить.

Страна: Россия
Студия: Кинотрест, Лук-фильм
Продолжительность: 01:19:02
Язык: Русский

Файл
Формат: MKV
Качество: WEB-DL 1080p
Видео: AVC/H.264, 1920x804, ~4518 Kbps
Аудио: AC3, 6 ch, 384 Kbps - Русский
Субтитры: Нет


[+] M/I
General
Complete name               : Зима.(2019).WEB-DL.1080p.mkv
Format                      : Matroska
Format version              : Version 4
File size                   : 2.71 GiB
Duration                    : 1 h 19 min
Overall bit rate            : 4 904 kb/s
Movie name                  : Зима.(2019).WEB-DL.1080p
Encoded date                : UTC 2020-03-27 09:09:46
Writing application         : mkvmerge v44.0.0 ('Domino') 64-bit
Writing library             : libebml v1.3.10 + libmatroska v1.5.2
Attachments                 : poster.jpg / poster 2.jpg

Video
ID                          : 1
Format                      : AVC
Format/Info                 : Advanced Video Codec
Format profile              : High@L4
Format settings             : CABAC / 5 Ref Frames
Format settings, CABAC      : Yes
Format settings, Reference  : 5 frames
Codec ID                    : V_MPEG4/ISO/AVC
Duration                    : 1 h 19 min
Bit rate                    : 4 518 kb/s
Width                       : 1 920 pixels
Height                      : 804 pixels
Display aspect ratio        : 2.40:1
Frame rate mode             : Constant
Frame rate                  : 24.000 FPS
Color space                 : YUV
Chroma subsampling          : 4:2:0
Bit depth                   : 8 bits
Scan type                   : Progressive
Bits/(Pixel*Frame)          : 0.122
Stream size                 : 2.49 GiB (92%)
Title                       : Зима.(2019).WEB-DL.1080p
Language                    : Russian
Default                     : Yes
Forced                      : No
Color range                 : Limited
Color primaries             : BT.709
Transfer characteristics    : BT.709
Matrix coefficients         : BT.709

Audio
ID                          : 2
Format                      : AC-3
Format/Info                 : Audio Coding 3
Commercial name             : Dolby Digital
Codec ID                    : A_AC3
Duration                    : 1 h 19 min
Bit rate mode               : Constant
Bit rate                    : 384 kb/s
Channel(s)                  : 6 channels
Channel layout              : L R C LFE Ls Rs
Sampling rate               : 48.0 kHz
Frame rate                  : 31.250 FPS (1536 SPF)
Compression mode            : Lossy
Stream size                 : 217 MiB (8%)
Title                       : iTunes
Language                    : Russian
Service kind                : Complete Main
Default                     : Yes
Forced                      : No

Menu
00:00:00.000                : :Глава 01
00:05:30.000                : :Глава 02
00:11:00.000                : :Глава 03
00:16:30.000                : :Глава 04
00:22:00.000                : :Глава 05
00:27:30.000                : :Глава 06
00:33:00.000                : :Глава 07
00:38:30.000                : :Глава 08
00:44:00.000                : :Глава 09
00:49:30.000                : :Глава 10
00:55:00.000                : :Глава 11
01:00:30.000                : :Глава 12
01:06:00.000                : :Глава 13
01:11:30.000                : :Глава 14
01:17:00.000                : :Глава 15



Скриншоты:
[+] Всего файлов в раздаче - 1:
Зима.(2019).WEB-DL.1080p.mkv2.71 GB

Похожие раздачи по запросу - зима:
2020-05-28 U Зима, картофельные клёцки / Winterkartoffelknödel (2014) WEB-DLRip | L1 1.46 GB ↑ 65 ↓ 14
2020-03-28 U Зима (2019) WEB-DLRip от GeneralFilm | iTunes 745.15 MB ↑ 93 ↓ 17
2020-03-27 U Зима (2019) WEB-DLRip от Files-x | iTunes 1.37 GB ↑ 345 ↓ 85
2020-03-27 U Зима (2019) WEB-DLRip-AVC от Files-x | iTunes 1.46 GB ↑ 72 ↓ 46
2020-03-26 U Зима (2019) WEB-DLRip-AVC | iTunes 1.46 GB ↑ 766 ↓ 327

Отзывы
Prdenis Оценка: 1
Трэш

Зарегистрируйтесь чтобы добавить комментарий.
Обратная связь
Copyleft ©