↑↓torrent.by
Поиск
Логин: Регистрация
Пароль: Восстановить пароль

Бладшот / Bloodshot (2020) WEB-DLRip-AVC | A, L

Скачать bladshot-bloodshot-2020-web-dlrip-avc-a-l.torrent
U Магнитная ссылка Размер: 1.88 GB Раздают: 514 Качают: 136 Добавлен: 2020-03-27 18:20:25
Бладшот / Bloodshot (2020) WEB-DLRip-AVC | A, L

Название: Бладшот
Оригинальное название: Bloodshot
Год выпуска: 2020
Жанр:  Фантастика, боевик, драма
Режиссер: Дэйв Уилсон
В ролях: Вин Дизель, Сэм Хьюэн, Эйса Гонсалес, Гай Пирс, Талула Райли, Тоби Кеббелл, Ламорн Моррис, Йоуханнес Хёйкьюр Йоуханнессон, Сиддхартх Дхананджай, Тайрел Мейер, Алекс Эн-лос

О фильме:
Корпорация RST возвращает к жизни недавно убитого солдата Рэя Гаррисона. Армия нанороботов в его крови превратила Рэя в бессмертного Бладшота, наделенного сверхчеловеческой силой и способностью мгновенно самоисцеляться. Контролируя тело Рэя, компания влияет на его разум и воспоминания. Но герой пойдет на все, чтобы выяснить правду.

Выпущено: США, Китай, Sony Pictures Entertainment (SPE), Bona Film Group, Columbia Pictures
Продолжительность: 01:49:20
Перевод: Авторский (одноголосый, закадровый) + Любительский многоголосый, закадровый)
Субтитры: Русские (форсированные, надписи), русские, английские, украинские (полные)

Файл
Качество: WEB-DLRip-AVC (ivanes)
Формат: MKV
Видео: x264, 1040x430, 23.976 fps, ~1562 kbps, 0.146 bit/pixel
Аудио 1: AC3, 6 ch, ~448 kbps- MVO - Mallorn
Аудио 2: AC3, 6 ch, ~448 kbps- AVO - zamez
Формат субтитров: softsub (SRT)

***Релиз от: -=DoMiNo=-


[+] M/I
General
Format                      : Matroska
Format version              : Version 4
File size                   : 1.88 GiB
Duration                    : 1 h 49 min
Overall bit rate            : 2 460 kb/s
Movie name                  : Бладшот (2020) WEB-DLRip-AVC
Encoded date                : UTC 2020-03-27 06:53:49
Writing application         : mkvmerge v44.0.0 ('Domino') 64-bit
Writing library             : libebml v1.3.10 + libmatroska v1.5.2
Attachments                 : poster.jpg / poster 2.jpg

Video
ID                          : 1
Format                      : AVC
Format/Info                 : Advanced Video Codec
Format profile              : High@L4.1
Format settings             : CABAC / 13 Ref Frames
Format settings, CABAC      : Yes
Format settings, Reference  : 13 frames
Codec ID                    : V_MPEG4/ISO/AVC
Duration                    : 1 h 49 min
Bit rate                    : 1 562 kb/s
Width                       : 1 040 pixels
Height                      : 430 pixels
Display aspect ratio        : 2.40:1
Frame rate mode             : Constant
Frame rate                  : 23.976 (24000/1001) FPS
Color space                 : YUV
Chroma subsampling          : 4:2:0
Bit depth                   : 8 bits
Scan type                   : Progressive
Bits/(Pixel*Frame)          : 0.146
Stream size                 : 1.19 GiB (63%)
Title                       : Rip by ivanes
Writing library             : x264 core 159 r2991 1771b55
Encoding settings           : cabac=1 / ref=13 / deblock=1:-2:-2 / analyse=0x3:0x113 / me=umh / subme=10 / psy=1 / psy_rd=1.00:0.00 / mixed_ref=1 / me_range=32 / chroma_me=1 / trellis=2 / 8x8dct=1 / cqm=0 / deadzone=21,11 / fast_pskip=0 / chroma_qp_offset=-2 / threads=12 / lookahead_threads=3 / sliced_threads=0 / nr=0 / decimate=1 / interlaced=0 / bluray_compat=0 / constrained_intra=0 / bframes=13 / b_pyramid=2 / b_adapt=2 / b_bias=0 / direct=1 / weightb=1 / open_gop=0 / weightp=2 / keyint=240 / keyint_min=23 / scenecut=40 / intra_refresh=0 / rc_lookahead=60 / rc=crf / mbtree=1 / crf=18.6 / qcomp=0.60 / qpmin=0 / qpmax=69 / qpstep=4 / vbv_maxrate=50000 / vbv_bufsize=62500 / crf_max=0.0 / nal_hrd=none / filler=0 / ip_ratio=1.40 / aq=1:1.00
Language                    : English
Default                     : Yes
Forced                      : No

Audio #1
ID                          : 2
Format                      : AC-3
Format/Info                 : Audio Coding 3
Commercial name             : Dolby Digital
Codec ID                    : A_AC3
Duration                    : 1 h 49 min
Bit rate mode               : Constant
Bit rate                    : 448 kb/s
Channel(s)                  : 6 channels
Channel layout              : L R C LFE Ls Rs
Sampling rate               : 48.0 kHz
Frame rate                  : 31.250 FPS (1536 SPF)
Compression mode            : Lossy
Stream size                 : 350 MiB (18%)
Title                       : L-MVO-Mallorn
Language                    : Russian
Service kind                : Complete Main
Default                     : Yes
Forced                      : No

Audio #2
ID                          : 3
Format                      : AC-3
Format/Info                 : Audio Coding 3
Commercial name             : Dolby Digital
Codec ID                    : A_AC3
Duration                    : 1 h 49 min
Bit rate mode               : Constant
Bit rate                    : 448 kb/s
Channel(s)                  : 6 channels
Channel layout              : L R C LFE Ls Rs
Sampling rate               : 48.0 kHz
Frame rate                  : 31.250 FPS (1536 SPF)
Compression mode            : Lossy
Stream size                 : 350 MiB (18%)
Title                       : AVO
Language                    : Russian
Service kind                : Complete Main
Default                     : No
Forced                      : No

Text #1
ID                          : 4
Format                      : UTF-8
Codec ID                    : S_TEXT/UTF8
Codec ID/Info               : UTF-8 Plain Text
Duration                    : 1 h 36 min
Bit rate                    : 2 b/s
Count of elements           : 50
Stream size                 : 2.06 KiB (0%)
Title                       : Forced
Language                    : Russian
Default                     : No
Forced                      : No

Text #2
ID                          : 5
Format                      : UTF-8
Codec ID                    : S_TEXT/UTF8
Codec ID/Info               : UTF-8 Plain Text
Duration                    : 1 h 41 min
Bit rate                    : 77 b/s
Count of elements           : 1071
Stream size                 : 57.7 KiB (0%)
Title                       : Full
Language                    : Russian
Default                     : No
Forced                      : No

Text #3
ID                          : 6
Format                      : UTF-8
Codec ID                    : S_TEXT/UTF8
Codec ID/Info               : UTF-8 Plain Text
Duration                    : 1 h 41 min
Bit rate                    : 70 b/s
Count of elements           : 1071
Stream size                 : 52.6 KiB (0%)
Title                       : Full
Language                    : Ukrainian
Default                     : No
Forced                      : No

Text #4
ID                          : 7
Format                      : UTF-8
Codec ID                    : S_TEXT/UTF8
Codec ID/Info               : UTF-8 Plain Text
Duration                    : 1 h 41 min
Bit rate                    : 45 b/s
Count of elements           : 1150
Stream size                 : 33.9 KiB (0%)
Title                       : Full
Language                    : English
Default                     : No
Forced                      : No

Text #5
ID                          : 8
Format                      : UTF-8
Codec ID                    : S_TEXT/UTF8
Codec ID/Info               : UTF-8 Plain Text
Duration                    : 1 h 47 min
Bit rate                    : 51 b/s
Count of elements           : 1493
Stream size                 : 40.7 KiB (0%)
Title                       : SDH
Language                    : English
Default                     : No
Forced                      : No

Menu
00:00:00.000                : en:Studio Logo
00:01:02.000                : en:Scene 2
00:04:10.000                : en:Scene 3
00:05:09.000                : en:Scene 4
00:07:01.000                : en:Scene 5
00:08:51.000                : en:Scene 6
00:13:04.000                : en:Scene 7
00:17:31.000                : en:Scene 8
00:20:39.000                : en:Scene 9
00:22:46.000                : en:Scene 10
00:25:07.000                : en:Scene 11
00:27:57.000                : en:Scene 12
00:29:27.000                : en:Scene 13
00:32:12.000                : en:Scene 14
00:32:43.000                : en:Scene 15
00:38:27.000                : en:Scene 16
00:41:42.000                : en:Scene 17
00:43:21.000                : en:Scene 18
00:50:55.000                : en:Scene 19
00:52:44.000                : en:Scene 20
00:54:16.000                : en:Scene 21
00:56:21.000                : en:Scene 22
01:02:31.000                : en:Scene 23
01:08:10.000                : en:Scene 24
01:09:01.000                : en:Scene 25
01:09:51.000                : en:Scene 26
01:12:44.000                : en:Scene 27
01:17:38.000                : en:Scene 28
01:19:16.000                : en:Scene 29
01:22:21.000                : en:Scene 30
01:27:32.000                : en:Scene 31
01:28:15.000                : en:Scene 32
01:31:09.000                : en:Scene 33
01:35:20.000                : en:Scene 34
01:38:33.000                : en:Scene 35
01:42:38.000                : en:End Credits



Скриншоты:
[+] Всего файлов в раздаче - 1:
Бладшот (2020) WEB-DLRip-AVC.mkv1.88 GB

Показать еще раздачи по запросу бладшот:
2020-05-21 U Бладшот / Bloodshot (2020) BDRip 1080p от селезень | Лицензия 12.71 GB ↑ 42 ↓ 13
2020-05-21 U Бладшот / Bloodshot (2020) BDRip 720p от селезень | D, P | Лицензия 5.14 GB ↑ 38 ↓ 11
2020-05-21 U Бладшот / Bloodshot (2020) BDRip от MegaPeer | Лицензия 1.46 GB ↑ 131 ↓ 33
2020-05-04 U Бладшот / Bloodshot (2020) BDRip 1080p от qqss44 & MegaPeer | iTunes 7.56 GB ↑ 86 ↓ 32
2020-04-28 U Бладшот / Bloodshot (2020) BDRip-HEVC 1080p от HEVC-CLUB | iTunes 6.44 GB ↑ 35 ↓ 13
2020-04-27 U Бладшот / Bloodshot (2020) BDRip-AVC от ExKinoRay | iTunes 2.90 GB ↑ 88 ↓ 17
2020-04-27 U Бладшот / Bloodshot (2020) UHD BDRemux 2160p от селезень | 4K | HDR | D, P | iTunes 40.70 GB ↑ 26 ↓ 29

Отзывы
Зарегистрируйтесь чтобы добавить комментарий.
Обратная связь
Copyleft ©