↑↓torrent.by
Поиск
Логин: Регистрация
Пароль: Восстановить пароль

Зима (2019) WEB-DLRip от Files-x | iTunes

Скачать zima-2019-web-dlrip-ot-files-x-itunes.torrent
U Магнитная ссылка Размер: 1.37 GB Раздают: 335 Качают: 85 Добавлен: 2020-03-27 18:20:44
Зима  (2019) WEB-DLRip от Files-x | iTunes

Оригинальное название: Зима
Год выпуска: 2019
Жанр:  Драма
Режиссер: Сергей Черников
В ролях:  Игорь Петренко, Александр Петров (II), Тимофей Трибунцев, Никита Павленко, Михаил Жигалов, Дмитрий Куличков, Александр Аблязов, Никита Салопин, Алексей Демидов, Никита Абдулов

О фильме По пути домой в чужом городе Александр со своим отцом получают тяжелые ранения от пьяных малолетних преступников. Отец погибает, а Александр становится опасным свидетелем, которого необходимо устранить. Он вынужден сам начать преследование и очень скоро из жертвы превращается в хладнокровного охотника.

Выпущено: Россия
Студия:   Кинотрест, Лук-фильм
Продолжительность: 01:19:02
Перевод: Не требуется

Файл
Качество: WEB-DLRip
Видео: XviD, ~  2096 Кбит/с, 720x304
Аудио: AC3, 6 ch, 384 Кбит/с


[+] MediaInfo
General
Complete name                    : H:fiiles xZima.2019.WEB-DLRip.  Files-x.avi
Format                           : AVI
Format/Info                      : Audio Video Interleave
File size                        : 1.37 GiB
Duration                         : 1h 19mn
Overall bit rate                 : 2 489 Kbps
Writing application              : VirtualDubMod 1.5.10.3 | www.virtualdub-fr.org || (build 2550/release)
Writing library                  : VirtualDubMod build 2550/release

Video
ID                               : 0
Format                           : MPEG-4 Visual
Format profile                   : Advanced Simple@L5
Format settings, BVOP            : 1
Format settings, QPel            : No
Format settings, GMC             : No warppoints
Format settings, Matrix          : Custom
Codec ID                         : XVID
Codec ID/Hint                    : XviD
Duration                         : 1h 19mn
Bit rate                         : 2 096 Kbps
Width                            : 720 pixels
Height                           : 304 pixels
Display aspect ratio             : 2.35:1
Frame rate                       : 24.000 fps
Color space                      : YUV
Chroma subsampling               : 4:2:0
Bit depth                        : 8 bits
Scan type                        : Progressive
Compression mode                 : Lossy
Bits/(Pixel*Frame)               : 0.399
Stream size                      : 1.16 GiB (84%)
Writing library                  : XviD 73

Audio
ID                               : 1
Format                           : AC-3
Format/Info                      : Audio Coding 3
Mode extension                   : CM (complete main)
Codec ID                         : 2000
Duration                         : 1h 19mn
Bit rate mode                    : Constant
Bit rate                         : 384 Kbps
Channel(s)                       : 6 channels
Channel positions                : Front: L C R, Side: L R, LFE
Sampling rate                    : 48.0 KHz
Bit depth                        : 16 bits
Compression mode                 : Lossy
Stream size                      : 217 MiB (15%)
Alignment                        : Split accross interleaves
Interleave, duration             : 42 ms (1.00 video frame)
Interleave, preload duration     : 500 ms


Релиз от:



Скриншоты:
[+] Всего файлов в раздаче - 1:
Zima.2019.WEB-DLRip. Files-x.avi1.37 GB

Похожие раздачи по запросу - зима:
2020-03-28 U Зима (2019) WEB-DLRip от GeneralFilm | iTunes 745.15 MB ↑ 90 ↓ 17
2020-03-27 U Зима (2019) WEB-DL 1080p | iTunes 1К2.71 GB ↑ 1119 ↓ 487
2020-03-27 U Зима (2019) WEB-DLRip-AVC от Files-x | iTunes 1.46 GB ↑ 72 ↓ 46
2020-03-27 U Зима (2019) WEB-DLRip-AVC от ExKinoRay | iTunes 742.25 MB ↑ 69 ↓ 25
2020-03-26 U Зима (2019) WEB-DLRip-AVC | iTunes 1.46 GB ↑ 756 ↓ 327

Отзывы
Зарегистрируйтесь чтобы добавить комментарий.
Обратная связь
Copyleft ©