↑↓torrent.by
Поиск
Логин: Регистрация
Пароль: Восстановить пароль

Бладшот / Bloodshot (2020) WEB-DLRip-AVC | Mallorn

Скачать bladshot-bloodshot-2020-web-dlrip-avc-mallorn.torrent
U Магнитная ссылка Размер: 744.23 MB Раздают: 230 Качают: 50 Добавлен: 2020-03-27 18:20:49
Бладшот / Bloodshot (2020) WEB-DLRip-AVC | Mallorn

Название: Бладшот
Оригинальное название: Bloodshot
Год выпуска: 2020
Жанр:  Фантастика, боевик, драма
Режиссер: Дэйв Уилсон
В ролях: Вин Дизель, Сэм Хьюэн, Эйса Гонсалес, Гай Пирс, Талула Райли, Тоби Кеббелл, Ламорн Моррис, Йоуханнес Хёйкьюр Йоуханнессон, Сиддхартх Дхананджай, Тайрел Мейер, Алекс Эн-лос

О фильме:
Корпорация RST возвращает к жизни недавно убитого солдата Рэя Гаррисона. Армия нанороботов в его крови превратила Рэя в бессмертного Бладшота, наделенного сверхчеловеческой силой и способностью мгновенно самоисцеляться. Контролируя тело Рэя, компания влияет на его разум и воспоминания. Но герой пойдет на все, чтобы выяснить правду.

Выпущено: США, Китай, Sony Pictures Entertainment (SPE), Bona Film Group, Columbia Pictures
Продолжительность: 01:49:20
Перевод: Любительский (многоголосый, закадровый)
Субтитры: Русские (форсированные, надписи), русские, английские, украинские (полные)

Файл
Формат: Matroska
Качество: WEB-DLRip-AVC
Видео: 720x300 at 23.976 fps, x264, ~888 kbps, 0.171 bpp
Аудио: AAC, 2 ch, ~64 kbps - | Русский | - Mallorn
Формат субтитров: softsub (SRT)

***Релиз от: -=DoMiNo=-


[+] M/I
General
Format                      : Matroska
Format version              : Version 4
File size                   : 744 MiB
Duration                    : 1 h 49 min
Overall bit rate            : 952 kb/s
Movie name                  : Бладшот (2020) WEB-DLRip-AVC [-=DoMiNo=-]
Encoded date                : UTC 2020-03-27 11:16:33
Writing application         : mkvmerge v44.0.0 ('Domino') 64-bit
Writing library             : libebml v1.3.10 + libmatroska v1.5.2
Attachments                 : poster / poster

Video
ID                          : 1
Format                      : AVC
Format/Info                 : Advanced Video Codec
Format profile              : High@L4.1
Format settings             : CABAC / 12 Ref Frames
Format settings, CABAC      : Yes
Format settings, Reference  : 12 frames
Codec ID                    : V_MPEG4/ISO/AVC
Duration                    : 1 h 49 min
Bit rate                    : 888 kb/s
Width                       : 720 pixels
Height                      : 300 pixels
Display aspect ratio        : 2.40:1
Frame rate mode             : Constant
Frame rate                  : 23.976 (24000/1001) FPS
Color space                 : YUV
Chroma subsampling          : 4:2:0
Bit depth                   : 8 bits
Scan type                   : Progressive
Bits/(Pixel*Frame)          : 0.171
Stream size                 : 692 MiB (93%)
Title                       : RIP_BY_-=DoMiNo=-
Writing library             : x264 core 157 r2958 57baac4
Encoding settings           : cabac=1 / ref=12 / deblock=1:-1:-1 / analyse=0x3:0x133 / me=umh / subme=11 / psy=1 / psy_rd=1.00:0.15 / mixed_ref=1 / me_range=32 / chroma_me=1 / trellis=2 / 8x8dct=1 / cqm=0 / deadzone=21,11 / fast_pskip=0 / chroma_qp_offset=-3 / threads=6 / lookahead_threads=1 / sliced_threads=0 / nr=0 / decimate=0 / interlaced=0 / bluray_compat=0 / constrained_intra=0 / bframes=12 / b_pyramid=2 / b_adapt=2 / b_bias=0 / direct=3 / weightb=1 / open_gop=0 / weightp=2 / keyint=240 / keyint_min=24 / scenecut=40 / intra_refresh=0 / rc_lookahead=60 / rc=2pass / mbtree=0 / bitrate=888 / ratetol=1.0 / qcomp=0.60 / qpmin=0 / qpmax=69 / qpstep=4 / cplxblur=20.0 / qblur=0.5 / vbv_maxrate=50000 / vbv_bufsize=62500 / nal_hrd=none / filler=0 / ip_ratio=1.40 / pb_ratio=1.30 / aq=2:1.00
Language                    : English
Default                     : Yes
Forced                      : No

Audio
ID                          : 2
Format                      : AAC LC SBR
Format/Info                 : Advanced Audio Codec Low Complexity with Spectral Band Replication
Commercial name             : HE-AAC
Format settings             : Implicit
Codec ID                    : A_AAC-2
Duration                    : 1 h 49 min
Bit rate                    : 64.0 kb/s
Channel(s)                  : 2 channels
Channel layout              : L R
Sampling rate               : 48.0 kHz
Frame rate                  : 23.438 FPS (2048 SPF)
Compression mode            : Lossy
Stream size                 : 50.1 MiB (7%)
Title                       : Mallorn
Language                    : Russian
Default                     : Yes
Forced                      : No

Text #1
ID                          : 3
Format                      : UTF-8
Codec ID                    : S_TEXT/UTF8
Codec ID/Info               : UTF-8 Plain Text
Duration                    : 1 h 36 min
Bit rate                    : 2 b/s
Count of elements           : 50
Stream size                 : 2.06 KiB (0%)
Title                       : Forced
Language                    : Russian
Default                     : No
Forced                      : Yes

Text #2
ID                          : 4
Format                      : UTF-8
Codec ID                    : S_TEXT/UTF8
Codec ID/Info               : UTF-8 Plain Text
Duration                    : 1 h 41 min
Bit rate                    : 77 b/s
Count of elements           : 1071
Stream size                 : 57.7 KiB (0%)
Title                       : Full
Language                    : Russian
Default                     : Yes
Forced                      : No

Text #3
ID                          : 5
Format                      : UTF-8
Codec ID                    : S_TEXT/UTF8
Codec ID/Info               : UTF-8 Plain Text
Duration                    : 1 h 41 min
Bit rate                    : 70 b/s
Count of elements           : 1071
Stream size                 : 52.6 KiB (0%)
Title                       : Full
Language                    : Ukrainian
Default                     : No
Forced                      : No

Text #4
ID                          : 6
Format                      : UTF-8
Codec ID                    : S_TEXT/UTF8
Codec ID/Info               : UTF-8 Plain Text
Duration                    : 1 h 41 min
Bit rate                    : 45 b/s
Count of elements           : 1150
Stream size                 : 33.9 KiB (0%)
Title                       : Full
Language                    : English
Default                     : No
Forced                      : No

Text #5
ID                          : 7
Format                      : UTF-8
Codec ID                    : S_TEXT/UTF8
Codec ID/Info               : UTF-8 Plain Text
Duration                    : 1 h 47 min
Bit rate                    : 51 b/s
Count of elements           : 1493
Stream size                 : 40.7 KiB (0%)
Title                       : SDH
Language                    : English
Default                     : No
Forced                      : No

Menu
00:00:00.000                : :Studio Logo
00:01:02.000                : :Scene 2
00:04:10.000                : :Scene 3
00:05:09.000                : :Scene 4
00:07:01.000                : :Scene 5
00:08:51.000                : :Scene 6
00:13:04.000                : :Scene 7
00:17:31.000                : :Scene 8
00:20:39.000                : :Scene 9
00:22:46.000                : :Scene 10
00:25:07.000                : :Scene 11
00:27:57.000                : :Scene 12
00:29:27.000                : :Scene 13
00:32:12.000                : :Scene 14
00:32:43.000                : :Scene 15
00:38:27.000                : :Scene 16
00:41:42.000                : :Scene 17
00:43:21.000                : :Scene 18
00:50:55.000                : :Scene 19
00:52:44.000                : :Scene 20
00:54:16.000                : :Scene 21
00:56:21.000                : :Scene 22
01:02:31.000                : :Scene 23
01:08:10.000                : :Scene 24
01:09:01.000                : :Scene 25
01:09:51.000                : :Scene 26
01:12:44.000                : :Scene 27
01:17:38.000                : :Scene 28
01:19:16.000                : :Scene 29
01:22:21.000                : :Scene 30
01:27:32.000                : :Scene 31
01:28:15.000                : :Scene 32
01:31:09.000                : :Scene 33
01:35:20.000                : :Scene 34
01:38:33.000                : :Scene 35
01:42:38.000                : :End Credits



Скриншоты:
[+] Всего файлов в раздаче - 1:
Бладшот (2020) WEB-DLRip-AVC [-=DoMiNo=-].mkv744.23 MB

Показать еще раздачи по запросу бладшот:
2020-05-21 U Бладшот / Bloodshot (2020) BDRip 1080p от селезень | Лицензия 12.71 GB ↑ 41 ↓ 15
2020-05-21 U Бладшот / Bloodshot (2020) BDRip 720p от селезень | D, P | Лицензия 5.14 GB ↑ 37 ↓ 12
2020-05-21 U Бладшот / Bloodshot (2020) BDRip от MegaPeer | Лицензия 1.46 GB ↑ 131 ↓ 33
2020-05-04 U Бладшот / Bloodshot (2020) BDRip 1080p от qqss44 & MegaPeer | iTunes 7.56 GB ↑ 86 ↓ 32
2020-04-28 U Бладшот / Bloodshot (2020) BDRip-HEVC 1080p от HEVC-CLUB | iTunes 6.44 GB ↑ 35 ↓ 13
2020-04-27 U Бладшот / Bloodshot (2020) BDRip-AVC от ExKinoRay | iTunes 2.90 GB ↑ 88 ↓ 17
2020-04-27 U Бладшот / Bloodshot (2020) UHD BDRemux 2160p от селезень | 4K | HDR | D, P | iTunes 40.70 GB ↑ 26 ↓ 29

Отзывы
Зарегистрируйтесь чтобы добавить комментарий.
Обратная связь
Copyleft ©