↑↓torrent.by
Поиск
Логин: Регистрация
Пароль: Восстановить пароль

Будь, что будет [01-04 из 04] (2019) WEB-DLRip от Files-x

Скачать bud-chto-budet-01-04-iz-2019-web-dlrip-ot-files-x.torrent
U Магнитная ссылка Размер: 2.23 GB Раздают: 53 Качают: 25 Добавлен: 2020-03-27 18:20:58
Будь, что будет [01-04 из 04] (2019) WEB-DLRip от Files-x

Оригинальное название: Будь, что будет
Год выхода: 2019
Жанр: Мелодрама
Режиссер: Сергей Толкушкин
В ролях: Ирина Таранник, Дмитрий Шевченко, Владимир Заец, Леся Самаева, Мария Тарасова (II), Владимир Гладкий, Игорь Рубашкин, Даниил Сушко, Тамара Морозова, Екатерина Тышкевич, Ольга Арутюнян, Альберт Малик, Игорь Зоров, Дмитрий Гарбуз

О фильме:
Продавец мебельного магазина Татьяна Корниенко собирается замуж за Олега, идеального во всех отношениях мужчину. Но романтическую идиллию разрушает трагическая случайность – Олег гибнет под колесами автомобиля. Татьяна несколько месяцев не может прийти в себя, к тому же водитель автомобиля, из-за которого погиб ее жених, сумел избежать наказания. В жизни Татьяны происходит еще одна неприятность – она теряет работу и остается без средств к существованию, что окончательно повергает ее в депрессию. Но ей необходимо продолжать жить ради дочери, 10-летней Вари. Татьяну приглашают на собеседование в крупнейшую в стране строительную компанию «Фаворит» и предлагают возглавить департамент дизайна. Но она даже не догадывается, что попала на столь престижное место работы не случайно...

Страна: Украина
Студия: IVORY films
Продолжительность: 4 х 00:44:29
Перевод: Не требуется

Файл
Кодек: XviD
Качество: WEB-DLRip
Видео: XviD, ~ 1592 Кбит/с, 720x400, 25 кадр/с
Звук: AC3, 2 ch, 192 Кбит/с

Релиз:


[+] MediaInfo

General
Complete name                    : C:01.Будь, что будет.(2019).WEB-DLRip.by.Nicodem.Files-x.avi
Format                           : AVI
Format/Info                      : Audio Video Interleave
File size                        : 570 MiB
Duration                         : 44mn 27s
Overall bit rate                 : 1 794 Kbps
Writing application              : VirtualDubMod 1.5.10.3 | www.virtualdub-fr.org || (build 2550/release)
Writing library                  : VirtualDubMod build 2550/release

Video
ID                               : 0
Format                           : MPEG-4 Visual
Format profile                   : Advanced Simple@L5
Format settings, BVOP            : 1
Format settings, QPel            : No
Format settings, GMC             : No warppoints
Format settings, Matrix          : Custom
Codec ID                         : XVID
Codec ID/Hint                    : XviD
Duration                         : 44mn 27s
Bit rate                         : 1 592 Kbps
Width                            : 720 pixels
Height                           : 400 pixels
Display aspect ratio             : 16:9
Frame rate                       : 25.000 fps
Color space                      : YUV
Chroma subsampling               : 4:2:0
Bit depth                        : 8 bits
Scan type                        : Progressive
Compression mode                 : Lossy
Bits/(Pixel*Frame)               : 0.221
Stream size                      : 506 MiB (89%)
Writing library                  : XviD 73

Audio
ID                               : 1
Format                           : AC-3
Format/Info                      : Audio Coding 3
Mode extension                   : CM (complete main)
Codec ID                         : 2000
Duration                         : 44mn 27s
Bit rate mode                    : Constant
Bit rate                         : 192 Kbps
Channel(s)                       : 2 channels
Channel positions                : Front: L R
Sampling rate                    : 48.0 KHz
Bit depth                        : 16 bits
Compression mode                 : Lossy
Stream size                      : 61.0 MiB (11%)
Alignment                        : Split accross interleaves
Interleave, duration             : 40 ms (1.00 video frame)
Interleave, preload duration     : 500 ms



Скриншоты:
[+] Всего файлов в раздаче - 4:
01.Будь, что будет.(2019).WEB-DLRip.by.Nicodem.Files-x.avi570.29 MB
04.Будь, что будет.(2019).WEB-DLRip.by.Nicodem.Files-x.avi570.28 MB
03.Будь, что будет.(2019).WEB-DLRip.by.Nicodem.Files-x.avi570.13 MB
02.Будь, что будет.(2019).WEB-DLRip.by.Nicodem.Files-x.avi570.04 MB

Отзывы
Зарегистрируйтесь чтобы добавить комментарий.
Обратная связь
Copyleft ©