↑↓torrent.by
Поиск
Логин: Регистрация
Пароль: Восстановить пароль

Вперёд / Onward (2020) WEB-DL 1080p | HDrezka Studio

Скачать vpered-onward-2020-web-dl-1080p-hdrezka-studio.torrent
U Магнитная ссылка Размер: 6.55 GB Раздают: 379 Качают: 76 Добавлен: 2020-03-28 04:18:04
Вперёд / Onward (2020) WEB-DL 1080p | HDrezka Studio

Название: Вперёд
Оригинальное название: Onward
Год выхода: 2020
Жанр: мультфильм, фэнтези, комедия, приключения, семейный
Режиссер: Дэн Скэнлон
В ролях: Том Холланд, Крис Пратт, Джулия Луис-Дрейфус, Джон Ратценбергер, Октавия Спенсер, Мэл Родригез, Лина Уэйте, Али Вонг, Грэй Гриффин, Трейси Ульман

О фильме: Когда-то давно в сказочном мире царила магия, но после открытия электричества маги стали не нужны, и развитие пошло по техногенному пути. Теперь эльфы, тролли, гоблины, мантикоры, феи, кентавры и единороги летают на самолетах, пользуются автомобилями и мобильниками и ведут в целом прозаичную жизнь.

Братья-эльфы Иэн и Барли Лайтфуты воспитывались одной мамой, потому что их отец умер, когда они были ещё совсем маленькими. На 16-летие Иэну достаётся посох отца, и магическое заклинание, которое должно вернуть того к жизни на один день, но волшебный кристалл исчезает, воскресив только нижнюю половину папы. Барли, большой любитель квестов, невероятно рад — прихватив полупапу, братья отправляются в приключение на поиски другого кристалла.


Страна: США
Студия: Pixar Animation Studios, Walt Disney Pictures
Продолжительность: 01:42:21
Перевод: Профессиональный, многоголосый, закадровый ~ HDrezka Studio

Файл
Кодек: MPEG-4 AVC
Качество: WEB-DL 1080p
Видео: 1920x800, 7956 kb/s, 23.976 fps
Звук:
1] 384kb/s, 6ch, 48000kHz, AC3 [RUS] | HDrezka Studio
2] 640kb/s, 6ch, 48000kHz, AC3 [ENG] | Английский оригинал
Субтитры: Aнглийские [SDH]

Работа над релизом: Atla22


[+] MI

Формат                                   : Matroska
Версия формата                           : Version 2
Размер файла                             : 6,55 Гбайт
Продолжительность                        : 1 ч. 42 м.
Общий поток                              : 9162 Кбит/сек
Название фильма                          : Onward
Дата кодирования                         : UTC 2020-03-25 08:10:52
Программа кодирования                    : mkvmerge v6.9.1 ('Blue Panther') 32bit built on Apr 18 2014 18:15:44
Библиотека кодирования                   : libebml v1.3.0 + libmatroska v1.4.1

Видео
Идентификатор                            : 1
Формат                                   : AVC
Формат/Информация                        : Advanced Video Codec
Профиль формата                          : High@L4
Настройки формата                        : CABAC / 4 Ref Frames
Параметр CABAC формата                   : Да
Параметр RefFrames формата               : 4 кадра
Идентификатор кодека                     : V_MPEG4/ISO/AVC
Продолжительность                        : 1 ч. 42 м.
Вид битрейта                             : Постоянный
Битрейт                                  : 7956 Кбит/сек
Номинальный битрейт                      : 10000 Кбит/сек
Ширина                                   : 1920 пикселей
Высота                                   : 800 пикселей
Соотношение сторон                       : 2,40:1
Режим частоты кадров                     : Постоянный
Частота кадров                           : 23,976 (24000/1001) кадра/сек
Цветовое пространство                    : YUV
Субдискретизация насыщенности            : 4:2:0
Битовая глубина                          : 8 бит
Тип развёртки                            : Прогрессивная
Бит/(Пиксели*Кадры)                      : 0.216
Размер потока                            : 5,69 Гбайт (87%)
Язык                                     : English
Default                                  : Да
Forced                                   : Нет
Цветовой диапазон                        : Limited
Основные цвета                           : BT.709
Характеристики трансфера                 : BT.709
Коэффициенты матрицы                     : BT.709

Аудио #1
Идентификатор                            : 2
Формат                                   : AC-3
Формат/Информация                        : Audio Coding 3
Идентификатор кодека                     : A_AC3
Продолжительность                        : 1 ч. 42 м.
Вид битрейта                             : Постоянный
Битрейт                                  : 384 Кбит/сек
Каналы                                   : 6 каналов
Расположение каналов                     : Front: L C R, Side: L R, LFE
Частота                                  : 48,0 КГц
Частота кадров                           : 31,250 кадров/сек (1536 SPF)
Битовая глубина                          : 16 бит
Метод сжатия                             : С потерями
Размер потока                            : 281 Мбайт (4%)
Заголовок                                : HDRezka Studio
Язык                                     : Russian
Default                                  : Да
Forced                                   : Нет

Аудио #2
Идентификатор                            : 3
Формат                                   : AC-3
Формат/Информация                        : Audio Coding 3
Идентификатор кодека                     : A_AC3
Продолжительность                        : 1 ч. 42 м.
Вид битрейта                             : Постоянный
Битрейт                                  : 640 Кбит/сек
Каналы                                   : 6 каналов
Расположение каналов                     : Front: L C R, Side: L R, LFE
Частота                                  : 48,0 КГц
Частота кадров                           : 31,250 кадров/сек (1536 SPF)
Битовая глубина                          : 16 бит
Метод сжатия                             : С потерями
Размер потока                            : 469 Мбайт (7%)
Язык                                     : English
Default                                  : Нет
Forced                                   : Нет

Текст
Идентификатор                            : 4
Формат                                   : UTF-8
Идентификатор кодека                     : S_TEXT/UTF8
Идентификатор кодека/Информация          : UTF-8 Plain Text
Заголовок                                : SDH
Язык                                     : English
Default                                  : Нет
Forced                                   : Нет

Меню
00:00:00.000                             : en:Studio Logo
00:00:49.000                             : en:Long ago
00:03:04.000                             : en:Title Sequence
00:03:09.000                             : en:Ian's morning
00:05:03.000                             : en:Officer Bronco comes to Ligjtfoots
00:07:03.000                             : en:Ian meet Dad's friend
00:08:14.000                             : en:Making a list
00:09:34.000                             : en:Ian starts his day
00:12:44.000                             : en:Ian misses his Dad
00:14:53.000                             : en:A gift from Dad
00:19:17.000                             : en:Ian is at his room
00:20:38.000                             : en:Barley comes up with something
00:23:46.000                             : en:Barley drives his car
00:25:34.000                             : en:Learning magic
00:27:25.000                             : en:The boys look for the Manticore
00:31:21.000                             : en:The Manticore comes back
00:32:49.000                             : en:Laurel worries about the boys
00:36:33.000                             : en:Guinevere gets a trouble
00:39:34.000                             : en:Ian tries magic again
00:42:48.000                             : en:The Manticore talks to Laurel
00:44:00.000                             : en:Ian drives Guinevere
00:47:48.000                             : en:The spell wears off
00:51:43.000                             : en:Barley argues with Ian
00:54:59.000                             : en:Grecklin of the Pawn shop
00:56:07.000                             : en:Bronco calls Laurel
00:57:24.000                             : en:Raven's Point
01:03:06.000                             : en:Bronco chases the boys
01:07:05.000                             : en:The boys follow the birds
01:08:49.000                             : en:Ian likes the spell
01:10:06.000                             : en:Laurel encounters Pixie Dusters
01:11:12.000                             : en:Barley talks about Dad
01:13:30.000                             : en:The boys are in dangerous
01:15:58.000                             : en:Back where they started
01:17:59.000                             : en:Barley cannot give it up
01:20:26.000                             : en:It's curse
01:22:44.000                             : en:I am a mighty warrior
01:24:26.000                             : en:Ian's decision
01:26:59.000                             : en:What Ian see
01:30:07.000                             : en:Ian back to his school
01:32:53.000                             : en:End Credits



Скриншоты:
[+] Всего файлов в раздаче - 1:
Onward.2020.MVO.WEB-DL.1080p.mkv6.55 GB

Отзывы
alma76
Хорошо бы в описании автора первоисточника указать.

Зарегистрируйтесь чтобы добавить комментарий.
Загрузите программу
  uTorrent.exe
Обратная связь
Copyleft ©