↑↓torrent.by
Поиск
Логин: Регистрация
Пароль: Восстановить пароль

Зима (2019) WEB-DLRip от GeneralFilm | iTunes

Скачать zima-2019-web-dlrip-ot-generalfilm-itunes.torrent
U Магнитная ссылка Размер: 745.15 MB Раздают: 90 Качают: 17 Добавлен: 2020-03-28 04:18:12
Зима (2019) WEB-DLRip от GeneralFilm | iTunes

Оригинальное название: Зима
Год выпуска: 2019
Жанр:  Драма
Выпущено: Россия, «Кинотрест», «Лук-фильм»
Режиссер: Сергей Черников
В ролях: Игорь Петренко, Александр Петров, Тимофей Трибунцев, Никита Павленко, Михаил Жигалов, Дмитрий Куличков, Александр Аблязов, Никита Салопин, Алексей Демидов, Никита Абдулов

О фильме: История развивается под новый год в небольшом подмосковном городке на фоне криминальных событий. По пути домой в чужом городе Александр со своим отцом ветераном ВОВ попадают в случайные трагические обстоятельства, при которых на АЗС оба получают тяжелые ранения от пьяных малолетних преступников. Отец Александра попадает в реанимацию, а он получив легкие ранения, становится опасным свидетелем, которого необходимо устранить.

Качество: WEB-DLRip
Видео: XviD build 73, 720x304 (2.35:1), 24.000 fps, 1117 Kbps (0.213 bit/pixel)
Аудио: 48.0 kHz, MP3, 2/0 ch, 192 kbps
Продолжительность: 01:19:01
Перевод: Не требуется [Русский]
Cубтитры: нет

Релиз:


[+] MediaInfo
General
Complete name               : D:RazdachiZima.2019.WEB-DLRip.GeneralFilm.avi
Format                      : AVI
Format/Info                 : Audio Video Interleave
File size                   : 745 MiB
Duration                    : 1 h 19 min
Overall bit rate            : 1 318 kb/s
Writing application         : VirtualDubMod 1.5.10.3 | www.virtualdub-fr.org || (build 2550/release)
Writing library             : VirtualDubMod build 2550/release

Video
ID                          : 0
Format                      : MPEG-4 Visual
Format profile              : Advanced Simple@L5
Format settings             : BVOP1 / Custom Matrix
Format settings, BVOP       : 1
Format settings, QPel       : No
Format settings, GMC        : No warppoints
Format settings, Matrix     : Custom
Codec ID                    : XVID
Codec ID/Hint               : XviD
Duration                    : 1 h 19 min
Bit rate                    : 1 117 kb/s
Width                       : 720 pixels
Height                      : 304 pixels
Display aspect ratio        : 2.35:1
Frame rate                  : 24.000 FPS
Color space                 : YUV
Chroma subsampling          : 4:2:0
Bit depth                   : 8 bits
Scan type                   : Progressive
Compression mode            : Lossy
Bits/(Pixel*Frame)          : 0.213
Stream size                 : 631 MiB (85%)
Writing library             : XviD 73

Audio
ID                          : 1
Format                      : MPEG Audio
Format version              : Version 1
Format profile              : Layer 3
Codec ID                    : 55
Codec ID/Hint               : MP3
Duration                    : 1 h 19 min
Bit rate mode               : Constant
Bit rate                    : 192 kb/s
Channel(s)                  : 2 channels
Sampling rate               : 48.0 kHz
Frame rate                  : 41.667 FPS (1152 SPF)
Compression mode            : Lossy
Stream size                 : 109 MiB (15%)
Alignment                   : Aligned on interleaves
Interleave, duration        : 42  ms (1.00 video frame)
Interleave, preload duratio : 504  ms
Writing library             : LAME3.99r
Encoding settings           : -m s -V 4 -q 2 -lowpass 18.6 -b 192



Скриншоты:
[+] Всего файлов в раздаче - 1:
Zima.2019.WEB-DLRip.GeneralFilm.avi745.15 MB

Похожие раздачи по запросу - зима:
Вчера U Зима, картофельные клёцки / Winterkartoffelknödel (2014) WEB-DLRip | L1 1.46 GB ↑ 56 ↓ 14
2020-03-27 U Зима (2019) WEB-DLRip от Files-x | iTunes 1.37 GB ↑ 339 ↓ 85
2020-03-27 U Зима (2019) WEB-DL 1080p | iTunes 1К2.71 GB ↑ 1119 ↓ 487
2020-03-27 U Зима (2019) WEB-DLRip-AVC от Files-x | iTunes 1.46 GB ↑ 72 ↓ 46
2020-03-27 U Зима (2019) WEB-DLRip-AVC от ExKinoRay | iTunes 742.25 MB ↑ 69 ↓ 25
2020-03-26 U Зима (2019) WEB-DLRip-AVC | iTunes 1.46 GB ↑ 756 ↓ 327

Отзывы
Зарегистрируйтесь чтобы добавить комментарий.
Обратная связь
Copyleft ©