↑↓torrent.by
Поиск
Логин: Регистрация
Пароль: Восстановить пароль

Вивариум / Vivarium (2019) WEBRip 720p | BadBajo

Скачать vivarium-2019-webrip-720p-badbajo.torrent
U Магнитная ссылка Размер: 3.60 GB Раздают: 142 Качают: 52 Добавлен: 2020-03-28 04:19:01
Вивариум / Vivarium (2019) WEBRip 720p | BadBajo

Название: Вивариум
Оригинальное название: Vivarium
Год выхода: 2019
Жанр: Фантастика, детектив
Режиссер: Лоркан Финнеган
В ролях: Имоджен Путс, Даниэль Райан, Молли Макканн, Джесси Айзенберг, Джонатан Арис, Сенан Дженнингс, Инна Хардвик, Ольга Верли, Джек Хадсон, Майкл Макгьюн, Марк Куигли

О фильме:
В поисках идеального дома молодая пара знакомится со странным агентом по недвижимости. Он привозит их в новый поселок в пригороде, а затем исчезает. Том и Джемма с ужасом понимают, что они абсолютно одни в этом жутковато-стерильном лабиринте одинаковых домов и что из него нет выхода. Вскоре их одиночество будет прервано появлением у дверей коробки с младенцем, который похож на человека лишь внешне…

Страна: Ирландия, Дания, Бельгия
Студия: Lovely Productions, Fantastic Films, Frakas Productions
Продолжительность: 01:38:34
Перевод: Aвторский одноголосый | BadBajo

Файл
Кодек: x.264
Качество: WEBRip 720p | Vivarium.2019.1080p.AMZN.WEB-DL.DDP5.1.H.264-NTG
Видео: MPEG-4 AVC, 4200 Kбит/с, 1280x534, 23.976 кадр/с
Аудио #1: Русский (АС3, 6 ch, 384 Кбит/с, 48.0 KHz) Aвторский (одноголосый, закадровый) А.Важенин (BadBajo)
Аудио #2: Английский (АС3, 6 ch, 640 Кбит/с, 48.0 KHz)
Субтитры: английские
Трейлер


► Без Рекламы!


[+] MediaInfo
Источник: Vivarium.2019.1080p.AMZN.WEB-DL.DDP5.1.H.264-NTG
General
Unique ID                      : 202161782012811871050960465400896950946 (0x9816F165C1696026BEC3EAA20E6C12A2)
Complete name                  : Vivarium.2019.AMZN.WEBRip.720p.mkv
Format                         : Matroska
Format version                 : Version 4
File size                      : 3.60 GiB
Duration                       : 1 h 38 min
Overall bit rate               : 5 224 kb/s
Encoded date                   : UTC 2020-03-27 20:13:57
Writing application            : mkvmerge v7.1.0 ('Good Love') 64bit built on Jul 27 2014 13:06:55
Writing library                : libebml v1.3.0 + libmatroska v1.4.1

Video
ID                             : 1
Format                         : AVC
Format/Info                    : Advanced Video Codec
Format profile                 : High@L4.1
Format settings                : CABAC / 9 Ref Frames
Format settings, CABAC         : Yes
Format settings, Reference fra : 9 frames
Codec ID                       : V_MPEG4/ISO/AVC
Duration                       : 1 h 38 min
Bit rate                       : 4 200 kb/s
Width                          : 1 280 pixels
Height                         : 534 pixels
Display aspect ratio           : 2.40:1
Frame rate mode                : Constant
Frame rate                     : 23.976 (24000/1001) FPS
Color space                    : YUV
Chroma subsampling             : 4:2:0
Bit depth                      : 8 bits
Scan type                      : Progressive
Bits/(Pixel*Frame)             : 0.256
Stream size                    : 2.89 GiB (80%)
Writing library                : x264 core 157 r2958 57baac4
Encoding settings              : cabac=1 / ref=9 / deblock=1:-3:-3 / analyse=0x3:0x133 / me=umh / subme=11 / psy=1 / psy_rd=1.00:0.00 / mixed_ref=1 / me_range=48 / chroma_me=1 / trellis=2 / 8x8dct=1 / cqm=0 / deadzone=21,11 / fast_pskip=1 / chroma_qp_offset=-2 / threads=17 / lookahead_threads=4 / sliced_threads=0 / nr=0 / decimate=1 / interlaced=0 / bluray_compat=0 / constrained_intra=0 / bframes=10 / b_pyramid=2 / b_adapt=2 / b_bias=0 / direct=3 / weightb=1 / open_gop=0 / weightp=2 / keyint=240 / keyint_min=24 / scenecut=40 / intra_refresh=0 / rc_lookahead=60 / rc=2pass / mbtree=1 / bitrate=4200 / ratetol=1.0 / qcomp=0.60 / qpmin=0 / qpmax=69 / qpstep=4 / cplxblur=20.0 / qblur=0.5 / ip_ratio=1.40 / aq=1:1.00
Language                       : English
Default                        : Yes
Forced                         : No
Color range                    : Limited
Color primaries                : BT.709
Transfer characteristics       : BT.709
Matrix coefficients            : BT.709

Audio #1
ID                             : 2
Format                         : AC-3
Format/Info                    : Audio Coding 3
Commercial name                : Dolby Digital
Codec ID                       : A_AC3
Duration                       : 1 h 38 min
Bit rate mode                  : Constant
Bit rate                       : 384 kb/s
Channel(s)                     : 6 channels
Channel layout                 : L R C LFE Ls Rs
Sampling rate                  : 48.0 kHz
Frame rate                     : 31.250 FPS (1536 SPF)
Compression mode               : Lossy
Stream size                    : 271 MiB (7%)
Title                          : AVO | А.Важенин (BadBajo)
Language                       : Russian
Service kind                   : Complete Main
Default                        : Yes
Forced                         : No

Audio #2
ID                             : 3
Format                         : AC-3
Format/Info                    : Audio Coding 3
Commercial name                : Dolby Digital
Codec ID                       : A_AC3
Duration                       : 1 h 38 min
Bit rate mode                  : Constant
Bit rate                       : 640 kb/s
Channel(s)                     : 6 channels
Channel layout                 : L R C LFE Ls Rs
Sampling rate                  : 48.0 kHz
Frame rate                     : 31.250 FPS (1536 SPF)
Compression mode               : Lossy
Stream size                    : 451 MiB (12%)
Language                       : English
Service kind                   : Complete Main
Default                        : No
Forced                         : No

Text #1
ID                             : 4
Format                         : UTF-8
Codec ID                       : S_TEXT/UTF8
Codec ID/Info                  : UTF-8 Plain Text
Duration                       : 1 h 33 min
Bit rate                       : 24 b/s
Count of elements              : 689
Stream size                    : 16.8 KiB (0%)
Language                       : English
Default                        : No
Forced                         : No

Text #2
ID                             : 5
Format                         : UTF-8
Codec ID                       : S_TEXT/UTF8
Codec ID/Info                  : UTF-8 Plain Text
Duration                       : 1 h 34 min
Bit rate                       : 31 b/s
Count of elements              : 876
Stream size                    : 21.5 KiB (0%)
Title                          : SDH
Language                       : English
Default                        : No
Forced                         : No

Menu
00:00:00.000                   : :Chapter 1
00:19:38.803                   : :Chapter 2
00:44:14.487                   : :Chapter 3
01:03:11.832                   : :Chapter 4
01:31:43.250                   : :Chapter 5



Скриншоты:
[+] Всего файлов в раздаче - 1:
Vivarium.2019.AMZN.WEBRip.720p.mkv3.60 GB

Похожие раздачи по запросу - вивариум:
2020-05-14 U Вивариум / Vivarium (2019) HDRip от MegaPeer | HDrezka Studio 1.46 GB ↑ 132 ↓ 32
2020-05-14 U Вивариум / Vivarium (2019) BDRip 1080p | P, A 10.43 GB ↑ 188 ↓ 47
2020-04-02 U Вивариум / Vivarium (2019) WEB-DLRip от Scarabey | HDRezka Studio 1.50 GB ↑ 96 ↓ 26
2020-03-31 U Вивариум / Vivarium (2019) WEB-DLRip от MegaPeer | HDrezka Studio 1.46 GB ↑ 216 ↓ 40
2020-03-31 U Вивариум / Vivarium (2019) WEB-DL 1080p | HDrezka Studio 6.51 GB ↑ 270 ↓ 59
2020-03-27 U Вивариум / Vivarium (2019) WEB-DL 1080p l BadBajo 3.66 GB ↑ 863 ↓ 354

Отзывы
Зарегистрируйтесь чтобы добавить комментарий.
Обратная связь
Copyleft ©