↑↓torrent.by
Поиск
Логин: Регистрация
Пароль: Восстановить пароль

Бладшот / Bloodshot (2020) WEB-DLRip-HEVC 1080p | L, A

Скачать bladshot-bloodshot-2020-web-dlrip-hevc-1080p-l-a.torrent
U Магнитная ссылка Размер: 2.97 GB Раздают: 302 Качают: 173 Добавлен: 2020-03-28 09:40:36
Бладшот / Bloodshot (2020) WEB-DLRip-HEVC 1080p | L, A

Название: Бладшот
Оригинальное название: Bloodshot
Год выхода: 2020
Жанр: Фантастика, боевик

Режиссер: Дэйв Уилсон

В ролях: Вин Дизель, Гай Пирс, Ламорн Моррис, Эйса Гонсалес, Сэм Хьюэн, Сиддхартх Дхананджай, Талула Райли, Тоби Кеббелл, Йоуханнес Хёйкьюр, Йоуханнессон, Алекс Эрнандез

О фильме:
Корпорация RST возвращает к жизни недавно убитого солдата Рэя Гаррисона. Армия нанороботов в его крови превратила Рэя в бессмертного Бладшота, наделенного сверхчеловеческой силой и способностью мгновенно самоисцеляться. Контролируя тело Рэя, компания влияет на его разум и воспоминания. Но герой пойдет на все, чтобы выяснить правду.

Страна: Китай, США
Продолжительность: 01:49:20
Перевод: Любительский (многоголосый, закадровый),  Авторский (одноголосый, закадровый)

Файл
Кодек: H.265
Качество: WEB-DLRip-HEVC 1080p
Видео: HEVC, 1920x808 (2.40:1), 23.976 fps, 2 547 kb/s
Аудио 1: AC3, 48.0 kHz, 6 ch, 448 kb/s | RUS (MVO - Mallorn)
Аудио 2: AC3, 48.0 kHz, 6 ch, 448 kb/s | RUS (AVO - zamez)
Аудио 3: AC3, 48.0 kHz, 6 ch, 448 kb/s | ENG (Оригинал)
Субтитры: Русские (Forced, full), украинские (Full), английские (Full, SDH)

Семпл


[+] MI
General
Unique ID                                : 208142579714075558885645554808936911624 (0x9C96CD7D929069A7A4A961E2962ED308)
Complete name                            : Bloodshot.(2020).WEB-DL.1080p.HEVC.mkv
Format                                   : Matroska
Format version                           : Version 4
File size                                : 2.97 GiB
Duration                                 : 1 h 49 min
Overall bit rate                         : 3 894 kb/s
Encoded date                             : UTC 2020-03-27 21:04:56
Writing application                      : mkvmerge v8.3.0 ('Over the Horizon') 64bit
Writing library                          : libebml v1.3.1 + libmatroska v1.4.2

Video
ID                                       : 1
Format                                   : HEVC
Format/Info                              : High Efficiency Video Coding
Format profile                           : Main 10@L5@High
Codec ID                                 : V_MPEGH/ISO/HEVC
Duration                                 : 1 h 49 min
Bit rate                                 : 2 547 kb/s
Width                                    : 1 920 pixels
Height                                   : 808 pixels
Display aspect ratio                     : 2.40:1
Frame rate mode                          : Constant
Frame rate                               : 23.976 (24000/1001) FPS
Color space                              : YUV
Chroma subsampling                       : 4:2:0
Bit depth                                : 10 bits
Bits/(Pixel*Frame)                       : 0.068
Stream size                              : 1.95 GiB (65%)
Writing library                          : x265 3.3+2-gbe2d82093:[Windows][GCC 9.2.0][64 bit] 10bit
Encoding settings                        : cpuid=1049071 / frame-threads=4 / numa-pools=8,8 / wpp / no-pmode / no-pme / no-psnr / no-ssim / log-level=2 / input-csp=1 / input-res=1920x808 / interlace=0 / total-frames=157284 / level-idc=0 / high-tier=1 / uhd-bd=0 / ref=4 / no-allow-non-conformance / no-repeat-headers / annexb / no-aud / no-hrd / info / hash=0 / no-temporal-layers / open-gop / min-keyint=23 / keyint=250 / gop-lookahead=0 / bframes=8 / b-adapt=2 / b-pyramid / bframe-bias=0 / rc-lookahead=80 / lookahead-slices=5 / scenecut=40 / hist-scenecut=0 / radl=0 / no-splice / no-intra-refresh / ctu=64 / min-cu-size=8 / no-rect / no-amp / max-tu-size=32 / tu-inter-depth=1 / tu-intra-depth=1 / limit-tu=0 / rdoq-level=0 / dynamic-rd=0.00 / no-ssim-rd / signhide / no-tskip / nr-intra=0 / nr-inter=0 / no-constrained-intra / no-strong-intra-smoothing / max-merge=4 / limit-refs=1 / no-limit-modes / me=1 / subme=5 / merange=57 / temporal-mvp / no-frame-dup / no-hme / weightp / weightb / no-analyze-src-pics / deblock=-1:-1 / no-sao / no-sao-non-deblock / rd=4 / selective-sao=0 / early-skip / rskip / no-fast-intra / no-tskip-fast / no-cu-lossless / b-intra / no-splitrd-skip / rdpenalty=0 / psy-rd=2.00 / psy-rdoq=0.00 / no-rd-refine / no-lossless / cbqpoffs=0 / crqpoffs=0 / rc=abr / bitrate=2560 / qcomp=0.60 / qpstep=4 / stats-write=0 / stats-read=0 / vbv-maxrate=65000 / vbv-bufsize=65000 / vbv-init=0.9 / ipratio=1.40 / pbratio=1.30 / aq-mode=3 / aq-strength=1.00 / cutree / zone-count=0 / no-strict-cbr / qg-size=32 / no-rc-grain / qpmax=69 / qpmin=0 / const-vbv / sar=0 / overscan=0 / videoformat=5 / range=0 / colorprim=2 / transfer=2 / colormatrix=2 / chromaloc=0 / display-window=0 / cll=0,0 / min-luma=0 / max-luma=1023 / log2-max-poc-lsb=8 / vui-timing-info / vui-hrd-info / slices=1 / no-opt-qp-pps / no-opt-ref-list-length-pps / no-multi-pass-opt-rps / scenecut-bias=0.05 / hist-threshold=0.01 / no-opt-cu-delta-qp / no-aq-motion / no-hdr10 / no-hdr10-opt / no-dhdr10-opt / no-idr-recovery-sei / analysis-reuse-level=0 / analysis-save-reuse-level=0 / analysis-load-reuse-level=0 / scale-factor=0 / refine-intra=0 / refine-inter=0 / refine-mv=1 / refine-ctu-distortion=0 / no-limit-sao / ctu-info=0 / no-lowpass-dct / refine-analysis-type=0 / copy-pic=1 / max-ausize-factor=1.0 / no-dynamic-refine / no-single-sei / no-hevc-aq / no-svt / no-field / qp-adaptation-range=1.00 / no-scenecut-aware-qpconformance-window-offsets / right=0 / bottom=0
Language                                 : English
Default                                  : Yes
Forced                                   : No
Color range                              : Limited

Audio #1
ID                                       : 2
Format                                   : AC-3
Format/Info                              : Audio Coding 3
Commercial name                          : Dolby Digital
Codec ID                                 : A_AC3
Duration                                 : 1 h 49 min
Bit rate mode                            : Constant
Bit rate                                 : 448 kb/s
Channel(s)                               : 6 channels
Channel layout                           : L R C LFE Ls Rs
Sampling rate                            : 48.0 kHz
Frame rate                               : 31.250 FPS (1536 SPF)
Bit depth                                : 16 bits
Compression mode                         : Lossy
Stream size                              : 350 MiB (12%)
Title                                    : Mallorn
Language                                 : Russian
Default                                  : Yes
Forced                                   : No

Audio #2
ID                                       : 3
Format                                   : AC-3
Format/Info                              : Audio Coding 3
Commercial name                          : Dolby Digital
Codec ID                                 : A_AC3
Duration                                 : 1 h 49 min
Bit rate mode                            : Constant
Bit rate                                 : 448 kb/s
Channel(s)                               : 6 channels
Channel layout                           : L R C LFE Ls Rs
Sampling rate                            : 48.0 kHz
Frame rate                               : 31.250 FPS (1536 SPF)
Bit depth                                : 16 bits
Compression mode                         : Lossy
Stream size                              : 350 MiB (12%)
Title                                    : zamez
Language                                 : Russian
Default                                  : No
Forced                                   : No

Audio #3
ID                                       : 4
Format                                   : AC-3
Format/Info                              : Audio Coding 3
Commercial name                          : Dolby Digital
Codec ID                                 : A_AC3
Duration                                 : 1 h 49 min
Bit rate mode                            : Constant
Bit rate                                 : 448 kb/s
Channel(s)                               : 6 channels
Channel layout                           : L R C LFE Ls Rs
Sampling rate                            : 48.0 kHz
Frame rate                               : 31.250 FPS (1536 SPF)
Bit depth                                : 16 bits
Compression mode                         : Lossy
Stream size                              : 350 MiB (12%)
Language                                 : English
Default                                  : No
Forced                                   : No

Text #1
ID                                       : 5
Format                                   : UTF-8
Codec ID                                 : S_TEXT/UTF8
Codec ID/Info                            : UTF-8 Plain Text
Duration                                 : 1 h 36 min
Bit rate                                 : 2 b/s
Count of elements                        : 50
Stream size                              : 2.06 KiB (0%)
Title                                    : Forced
Language                                 : Russian
Default                                  : Yes
Forced                                   : Yes

Text #2
ID                                       : 6
Format                                   : UTF-8
Codec ID                                 : S_TEXT/UTF8
Codec ID/Info                            : UTF-8 Plain Text
Duration                                 : 1 h 41 min
Bit rate                                 : 77 b/s
Count of elements                        : 1071
Stream size                              : 57.7 KiB (0%)
Title                                    : Full
Language                                 : Russian
Default                                  : No
Forced                                   : No

Text #3
ID                                       : 7
Format                                   : UTF-8
Codec ID                                 : S_TEXT/UTF8
Codec ID/Info                            : UTF-8 Plain Text
Duration                                 : 1 h 41 min
Bit rate                                 : 70 b/s
Count of elements                        : 1071
Stream size                              : 52.6 KiB (0%)
Title                                    : Full
Language                                 : Ukrainian
Default                                  : No
Forced                                   : No

Text #4
ID                                       : 8
Format                                   : UTF-8
Codec ID                                 : S_TEXT/UTF8
Codec ID/Info                            : UTF-8 Plain Text
Duration                                 : 1 h 41 min
Bit rate                                 : 46 b/s
Count of elements                        : 1150
Stream size                              : 34.9 KiB (0%)
Title                                    : Full
Language                                 : English
Default                                  : No
Forced                                   : No

Text #5
ID                                       : 9
Format                                   : UTF-8
Codec ID                                 : S_TEXT/UTF8
Codec ID/Info                            : UTF-8 Plain Text
Duration                                 : 1 h 47 min
Bit rate                                 : 51 b/s
Count of elements                        : 1493
Stream size                              : 40.6 KiB (0%)
Title                                    : SDH
Language                                 : English
Default                                  : No
Forced                                   : No



Скриншоты:
[+] Всего файлов в раздаче - 1:
Bloodshot.(2020).WEB-DL.1080p.HEVC.mkv2.97 GB

Показать еще раздачи по запросу бладшот:
2020-05-21 U Бладшот / Bloodshot (2020) BDRip 1080p от селезень | Лицензия 12.71 GB ↑ 41 ↓ 15
2020-05-21 U Бладшот / Bloodshot (2020) BDRip 720p от селезень | D, P | Лицензия 5.14 GB ↑ 37 ↓ 12
2020-05-21 U Бладшот / Bloodshot (2020) BDRip от MegaPeer | Лицензия 1.46 GB ↑ 131 ↓ 34
2020-05-04 U Бладшот / Bloodshot (2020) BDRip 1080p от qqss44 & MegaPeer | iTunes 7.56 GB ↑ 86 ↓ 32
2020-04-27 U Бладшот / Bloodshot (2020) BDRip-AVC от ExKinoRay | iTunes 2.90 GB ↑ 88 ↓ 17
2020-04-27 U Бладшот / Bloodshot (2020) UHD BDRemux 2160p от селезень | 4K | HDR | D, P | iTunes 40.70 GB ↑ 26 ↓ 29
2020-04-26 U Бладшот / Bloodshot (2020) BDRip от Twister & ExKinoRay | iTunes 1.41 GB ↑ 111 ↓ 20

Отзывы
Зарегистрируйтесь чтобы добавить комментарий.
Обратная связь
Copyleft ©