↑↓torrent.by
Поиск
Логин: Регистрация
Пароль: Восстановить пароль

Вечерний квартал [123] (2020) WEBRip от GeneralFilm

Скачать vecherniy-kvartal-123-2020-webrip-ot-generalfilm.torrent
U Магнитная ссылка Размер: 1.09 GB Раздают: 207 Качают: 76 Добавлен: 2020-03-29 13:50:50
Вечерний квартал [123] (2020) WEBRip от GeneralFilm

Информация
Оригинальное название: Вечерний квартал
Год выпуска: 2020
Жанр:  Юмористическое шоу, концерт, сатира
Выпущено: Украина, Студия 95 квартал
Режиссер: Студия 95 квартал
В ролях: Юрий Великий, Юрий Крапов, Елена Кравец, Евгений Кошевой, Сергей Казанин, Александр Пикалов, Юрий Корявченков, Аркадий Лапухин

Описание: Однажды веселые ребята из "95-го квартала" решили отметить свой переезд из родного Кривого Рога в Киев, а заодно 10-летие команды новым шоу. Коллектив подобрался душевный, "с огоньком", гости - сплошь знаменитые, а столичная публика - щедрая на аплодисменты. Так родилась самая смешная и популярная передача на отечественном телевидении - "Вечерний квартал". Идея шоу проста: в городе N есть некий модный квартал, в котором тусуются девять смешных жителей. Остальные просто приходят к ним в гости. Правда, гости не совсем обычные: среди них встречаются и богатые, и знаменитые, политики, и дизайнеры, и поп-звезды. Главный критерий - наличие здорового чувства юмора. Без него - никак, так как гостей здесь встречают не хлебом-солью, а розыгрышами и подколками, а те в свою очередь участвуют в скетчах и исполняют музыкальные или танцевальные номера.

Качество: WEBRip
Видео: XviD build 73, 720x400 (16:9), 25.000 fps, 1548 Kbps (0.215 bit/pixel)
Аудио: 48.0 kHz, MP3, 2/0 ch, 192 kbps
Продолжительность: 01:29:02
Перевод: Не требуется
Cубтитры: нет

Релиз:
[+] Содержание
MOZGI - НА КАРАНТИНЕ
Последний рабочий день Андрея Богдана
Варвара Кошевая и мальчик с таким себе лицом - Монолог Евгения Кошевого
Песня ИДЕАЛЬНОГО Мужика 8 Марта
Женское Дискавери
Клиника искусственного оплодотворения чужих жен
Творожок - Голопузый шоу балет Натальи Могилевской
Пошел он на хрен, отмена! ПРИКОЛ В СУПЕРМАРКЕТЕ
Валерий Жидков: Коронавирус показал сколько среди нас действительно больных людей
Зашкварка Потапа. Специальные гости - Павло Зібров, Евгений Кошевой, Позитив
Одинокая дама и полиция диалога 8 Марта
Вона з України - финальная песня



[+] MediaInfo
General
Complete name : D:RazdachiVechernij.Kvartal.123.WEBRip.GeneralFilm.avi
Format : AVI
Format/Info : Audio Video Interleave
File size : 1.09 GiB
Duration : 1 h 29 min
Overall bit rate : 1 750 kb/s
Writing application : VirtualDubMod 1.5.10.3 | www.virtualdub-fr.org || (build 2550/release)
Writing library : VirtualDubMod build 2550/release

Video
ID : 0
Format : MPEG-4 Visual
Format profile : Advanced Simple@L5
Format settings : BVOP1 / Custom Matrix
Format settings, BVOP : 1
Format settings, QPel : No
Format settings, GMC : No warppoints
Format settings, Matrix : Custom
Codec ID : XVID
Codec ID/Hint : XviD
Duration : 1 h 29 min
Bit rate : 1 548 kb/s
Width : 720 pixels
Height : 400 pixels
Display aspect ratio : 16:9
Frame rate : 25.000 FPS
Color space : YUV
Chroma subsampling : 4:2:0
Bit depth : 8 bits
Scan type : Progressive
Compression mode : Lossy
Bits/(Pixel*Frame) : 0.215
Stream size : 986 MiB (88%)
Writing library : XviD 73

Audio
ID : 1
Format : MPEG Audio
Format version : Version 1
Format profile : Layer 3
Codec ID : 55
Codec ID/Hint : MP3
Duration : 1 h 29 min
Bit rate mode : Constant
Bit rate : 192 kb/s
Channel(s) : 2 channels
Sampling rate : 48.0 kHz
Frame rate : 41.667 FPS (1152 SPF)
Compression mode : Lossy
Stream size : 122 MiB (11%)
Alignment : Aligned on interleaves
Interleave, duration : 40 ms (1.00 video frame)
Interleave, preload duratio: 504 ms
Writing library : LAME3.99r
Encoding settings : -m s -V 4 -q 2 -lowpass 18.6 -b 192



Скриншоты:
[+] Всего файлов в раздаче - 1:
Vechernij.Kvartal.123.WEBRip.GeneralFilm.avi1.09 GB

Похожие раздачи по запросу - вечерний:
2020-06-14 U Вечерний квартал [126] (2020) WEBRip от GeneralFilm 1.09 GB ↑ 296 ↓ 80
2020-06-07 U Вечерний квартал [125] (2020) WEBRip от GeneralFilm 1.09 GB ↑ 80 ↓ 32
2020-01-03 U Вечерний квартал [122] (2019) WEBRip от GeneralFilm 2.82 GB ↑ 243 ↓ 106

Отзывы
Зарегистрируйтесь чтобы добавить комментарий.
Обратная связь
Copyleft ©