↑↓torrent.by
Поиск
Логин: Регистрация
Пароль: Восстановить пароль

Видоизменённый углерод: Восстановленный / Altered Carbon: Resleeved (2020) WEB-DL 1080p | AlexFilm

Скачать vidoizmenennyy-uglerod-vosstanovlennyy-altered-carbon-resleeved-2020-web-dl-1080p-alexfilm.torrent
U Магнитная ссылка Размер: 4.70 GB Раздают: 35 Качают: 26 Добавлен: 2020-03-30 07:39:10
Видоизменённый углерод: Восстановленный / Altered Carbon: Resleeved (2020) WEB-DL 1080p | AlexFilm

Информация о сериале
Название: Видоизменённый углерод: Восстановленный
Оригинальное название: Altered Carbon: Resleeved
Год выхода: 2020
Жанр: Аниме, мультфильм, боевик, фантастика, детектив
Режиссёр: Такэру Накадзима, Ёсиюки Окада
В ролях: Тодд Хаберкорн, Ричард Эпкар, Рэй Чейз, Элизабет Максвелл, Стефани Паниселло, Кайл Хеберт, Джемисон Прайс, Тревор Дивэлл, Тан Каидзи, Бриттани Кокс и др.

Описание:
Бывший боец сопротивления, а ныне наёмник Такэси Ковач, помещён а новое тело на планете Латимер. Его услуги понадобились боссу якудза, чтобы защищать от нападений ниндзя девушку-татуировщицу, которая работает на клан Мидзуно. Задача Ковача — охранять подопечную до церемонии посвящения нового босса.

Страна: Япония,  США
Студия: Netflix
Продолжительность: 01:14:46
Перевод: Профессиональный (многоголосый закадровый) | AlexFilm

Файл
Кодек: AVC
Качество: WEB-DL 1080p
Видео: 1920x1080 (16:9), 24 fps, 7500 Kbps
Аудио №1:  AC3, 48,0 kHz, 6 ch, 384 kbps | AlexFilm
Аудио №2:  AC3, 48,0 kHz, 6 ch, 640 kbps | Original
Аудио №3:  AC3, 48,0 kHz, 6 ch, 640 kbps | Original
Субтитры: Русские (Forced, Full |«Netflix»|, английские (Forced, Full), японские (Forced, Full, SDH)

Реклама: Отсутствует
Исходник: Altered.Carbon.Resleeved.2020.JAPANESE.1080p.NF.WEB-DL.DDP5.1.x264-NTG


[+] MediaInfo:
Complete name               : D:Altered_Carbon_Resleeved_AlexFilm_1080pAltered.Carbon.Resleeved.2020.1080p.NF.WEB-DL.DD5.1.x264-NTG_EniaHD.mkv
Format                      : Matroska
Format version              : Version 2
File size                   : 4.70 GiB
Duration                    : 1 h 14 min
Overall bit rate mode       : Variable
Overall bit rate            : 8 997 kb/s
Encoded date                : UTC 2020-03-29 08:48:04
Writing application         : mkvmerge v4.9.1 ('Ich will') сборка от Jul 11 2011 23:53:15
Writing library             : libebml v1.2.1 + libmatroska v1.1.1

Video
ID                          : 1
Format                      : AVC
Format/Info                 : Advanced Video Codec
Format profile              : Main@L4
Format settings             : CABAC / 3 Ref Frames
Format settings, CABAC      : Yes
Format settings, Reference  : 3 frames
Codec ID                    : V_MPEG4/ISO/AVC
Duration                    : 1 h 14 min
Bit rate mode               : Variable
Bit rate                    : 7 500 kb/s
Maximum bit rate            : 11.2 Mb/s
Width                       : 1 920 pixels
Height                      : 1 080 pixels
Display aspect ratio        : 16:9
Frame rate mode             : Constant
Frame rate                  : 24.000 FPS
Color space                 : YUV
Chroma subsampling          : 4:2:0
Bit depth                   : 8 bits
Scan type                   : Progressive
Bits/(Pixel*Frame)          : 0.151
Stream size                 : 3.74 GiB (80%)
Title                       : Release by EniaHD
Writing library             : x264 core 148 r2717 0d2410d
Encoding settings           : cabac=1 / ref=3 / deblock=1:0:0 / analyse=0x1:0x111 / me=umh / subme=10 / psy=1 / psy_rd=1.00:0.00 / mixed_ref=1 / me_range=24 / chroma_me=1 / trellis=2 / 8x8dct=0 / cqm=0 / deadzone=21,11 / fast_pskip=1 / chroma_qp_offset=-2 / threads=6 / lookahead_threads=1 / sliced_threads=0 / nr=0 / decimate=1 / interlaced=0 / bluray_compat=0 / stitchable=1 / constrained_intra=0 / bframes=2 / b_pyramid=0 / b_adapt=2 / b_bias=0 / direct=3 / weightb=1 / open_gop=0 / weightp=2 / keyint=250 / keyint_min=24 / scenecut=0 / intra_refresh=0 / rc_lookahead=48 / rc=2pass / mbtree=1 / bitrate=7500 / ratetol=1.0 / qcomp=0.50 / qpmin=6 / qpmax=51 / qpstep=4 / cplxblur=20.0 / qblur=0.5 / vbv_maxrate=11250 / vbv_bufsize=15000 / nal_hrd=vbr / filler=0 / ip_ratio=1.40 / aq=1:1.00
Default                     : Yes
Forced                      : No

Audio #1
ID                          : 2
Format                      : AC-3
Format/Info                 : Audio Coding 3
Commercial name             : Dolby Digital
Codec ID                    : A_AC3
Duration                    : 1 h 14 min
Bit rate mode               : Constant
Bit rate                    : 384 kb/s
Channel(s)                  : 6 channels
Channel layout              : L R C LFE Ls Rs
Sampling rate               : 48.0 kHz
Frame rate                  : 31.250 FPS (1536 SPF)
Compression mode            : Lossy
Stream size                 : 205 MiB (4%)
Title                       : AlexFilm
Language                    : Russian
Service kind                : Complete Main
Default                     : Yes
Forced                      : No

Audio #2
ID                          : 3
Format                      : AC-3
Format/Info                 : Audio Coding 3
Commercial name             : Dolby Digital
Codec ID                    : A_AC3
Duration                    : 1 h 14 min
Bit rate mode               : Constant
Bit rate                    : 640 kb/s
Channel(s)                  : 6 channels
Channel layout              : L R C LFE Ls Rs
Sampling rate               : 48.0 kHz
Frame rate                  : 31.250 FPS (1536 SPF)
Compression mode            : Lossy
Stream size                 : 342 MiB (7%)
Language                    : English
Service kind                : Complete Main
Default                     : No
Forced                      : No

Audio #3
ID                          : 4
Format                      : AC-3
Format/Info                 : Audio Coding 3
Commercial name             : Dolby Digital
Codec ID                    : A_AC3
Duration                    : 1 h 14 min
Bit rate mode               : Constant
Bit rate                    : 640 kb/s
Channel(s)                  : 6 channels
Channel layout              : L R C LFE Ls Rs
Sampling rate               : 48.0 kHz
Frame rate                  : 31.250 FPS (1536 SPF)
Compression mode            : Lossy
Stream size                 : 342 MiB (7%)
Language                    : Japanese
Service kind                : Complete Main
Default                     : No
Forced                      : No

Text #1
ID                          : 5
Format                      : UTF-8
Codec ID                    : S_TEXT/UTF8
Codec ID/Info               : UTF-8 Plain Text
Title                       : Forced
Language                    : Russian
Default                     : Yes
Forced                      : No

Text #2
ID                          : 6
Format                      : UTF-8
Codec ID                    : S_TEXT/UTF8
Codec ID/Info               : UTF-8 Plain Text
Title                       : Full |NF|
Language                    : Russian
Default                     : No
Forced                      : No

Text #3
ID                          : 7
Format                      : UTF-8
Codec ID                    : S_TEXT/UTF8
Codec ID/Info               : UTF-8 Plain Text
Title                       : Forced
Language                    : English
Default                     : No
Forced                      : No

Text #4
ID                          : 8
Format                      : UTF-8
Codec ID                    : S_TEXT/UTF8
Codec ID/Info               : UTF-8 Plain Text
Title                       : Forced
Language                    : Japanese
Default                     : No
Forced                      : No

Text #5
ID                          : 9
Format                      : UTF-8
Codec ID                    : S_TEXT/UTF8
Codec ID/Info               : UTF-8 Plain Text
Title                       : Full
Language                    : English
Default                     : No
Forced                      : No

Text #6
ID                          : 10
Format                      : UTF-8
Codec ID                    : S_TEXT/UTF8
Codec ID/Info               : UTF-8 Plain Text
Title                       : Full
Language                    : Japanese
Default                     : No
Forced                      : No

Text #7
ID                          : 11
Format                      : UTF-8
Codec ID                    : S_TEXT/UTF8
Codec ID/Info               : UTF-8 Plain Text
Title                       : SDH
Language                    : Japanese
Default                     : No
Forced                      : No



Скриншоты:
[+] Всего файлов в раздаче - 1:
Altered.Carbon.Resleeved.2020.1080p.NF.WEB-DL.DD5.1.x264-NTG_EniaHD.mkv4.70 GB

Отзывы
Зарегистрируйтесь чтобы добавить комментарий.
Обратная связь
Copyleft ©