↑↓torrent.by
Поиск
Логин: Регистрация
Пароль: Восстановить пароль

Плохие парни навсегда / Bad Boys for Life (2020) WEB-DL 1080p от селезень | iTunes

Скачать plohie-parni-navsegda-bad-boys-for-life-2020-web-dl-1080p-ot-selezen-itunes.torrent
U Магнитная ссылка Размер: 4.67 GB Раздают: 1019 Качают: 593 Добавлен: 2020-03-31 07:26:28
Плохие парни навсегда / Bad Boys for Life (2020) WEB-DL 1080p от селезень | iTunes

Название: Плохие парни навсегда
Оригинальное название: Bad Boys for Life
Год выхода: 2020
Жанр: Боевик, триллер, комедия, криминал
Режиссер: Адиль Эль Арби, Билал Фалла
В ролях: Уилл Смит, Мартин Лоуренс, Александр Людвиг, Ванесса Энн Хадженс, Майкл Бэй, Джо Пантолиано, Паола Нуньес, Чарльз Мелтон, Кейт дель Кастильо, Ники Джем, Джейкоб Скипио

О фильме: Детективы Майк Лоури и Маркус Бёрнетт снова в деле! Правда, их отстраняют от всех операций, но разве отчаянных друзей когда-нибудь что-либо останавливало? Ведь на этот раз на Майка открывает охоту некто из его прошлой жизни. Так что парням придется отжечь по полной!

Страна: США, Мексика
Студия: Columbia Pictures, 2.0 Entertainment, Columbia Pictures Mexico
Продолжительность: 02:03:56
Перевод: Дублированный | iTunes

Качество: WEB-DL 1080p
Видео: MPEG-4 AVC, 1920x790, 4500 Kbit/s, 23.976 fps
Аудио #01: 48 kHz, AC3, 5.1, 384 Kbps | iTunes | RUS |
Аудио #02: 48 kHz, AAC, 2.0, 126 Kbps | iTunes | UKR |
Аудио #03: 48 kHz, AC3, 5.1, 384 Kbps | Оригинал |  ENG |
Субтитры: Русские (Forced, Full), украинские (Forced, Full), английские

Релиз:


[+] MI
General
Unique ID                   : 288379465308761339079429847206608652451 (0xD8F3DD60CF57CC712EB2F62F385648A3)
Complete name               : E:Video111Bad Boys for Life.2020.WEB-DL.1080p.seleZen.mkv
Format                      : Matroska
Format version              : Version 4
File size                   : 4.67 GiB
Duration                    : 2 h 3 min
Overall bit rate            : 5 397 kb/s
Movie name                  : Bad Boys for Life 2020 from селезень
Encoded date                : UTC 2020-03-30 19:12:21
Writing application         : mkvmerge v40.0.0 ('Old Town Road + Pony') 64-bit
Writing library             : libebml v1.3.9 + libmatroska v1.5.2

Video
ID                          : 1
Format                      : AVC
Format/Info                 : Advanced Video Codec
Format profile              : High@L4
Format settings             : CABAC / 5 Ref Frames
Format settings, CABAC      : Yes
Format settings, Reference  : 5 frames
Codec ID                    : V_MPEG4/ISO/AVC
Duration                    : 2 h 3 min
Bit rate                    : 4 500 kb/s
Width                       : 1 920 pixels
Height                      : 790 pixels
Display aspect ratio        : 2.40:1
Frame rate mode             : Constant
Frame rate                  : 23.976 (24000/1001) FPS
Color space                 : YUV
Chroma subsampling          : 4:2:0
Bit depth                   : 8 bits
Scan type                   : Progressive
Bits/(Pixel*Frame)          : 0.124
Stream size                 : 3.90 GiB (83%)
Language                    : English
Default                     : Yes
Forced                      : No
Color range                 : Limited
Color primaries             : BT.709
Transfer characteristics    : BT.709
Matrix coefficients         : BT.709

Audio #1
ID                          : 2
Format                      : AC-3
Format/Info                 : Audio Coding 3
Commercial name             : Dolby Digital
Codec ID                    : A_AC3
Duration                    : 2 h 3 min
Bit rate mode               : Constant
Bit rate                    : 384 kb/s
Channel(s)                  : 6 channels
Channel layout              : L R C LFE Ls Rs
Sampling rate               : 48.0 kHz
Frame rate                  : 31.250 FPS (1536 SPF)
Compression mode            : Lossy
Stream size                 : 340 MiB (7%)
Title                       : iTunes
Language                    : Russian
Service kind                : Complete Main
Default                     : Yes
Forced                      : Yes

Audio #2
ID                          : 3
Format                      : AAC LC
Format/Info                 : Advanced Audio Codec Low Complexity
Codec ID                    : A_AAC-2
Duration                    : 2 h 3 min
Bit rate                    : 126 kb/s
Channel(s)                  : 2 channels
Channel layout              : L R
Sampling rate               : 44.1 kHz
Frame rate                  : 43.066 FPS (1024 SPF)
Compression mode            : Lossy
Stream size                 : 111 MiB (2%)
Title                       : iTunes
Language                    : Ukrainian
Default                     : No
Forced                      : No

Audio #3
ID                          : 4
Format                      : AC-3
Format/Info                 : Audio Coding 3
Commercial name             : Dolby Digital
Codec ID                    : A_AC3
Duration                    : 2 h 3 min
Bit rate mode               : Constant
Bit rate                    : 384 kb/s
Channel(s)                  : 6 channels
Channel layout              : L R C LFE Ls Rs
Sampling rate               : 48.0 kHz
Frame rate                  : 31.250 FPS (1536 SPF)
Compression mode            : Lossy
Stream size                 : 340 MiB (7%)
Title                       : Original
Language                    : English
Service kind                : Complete Main
Default                     : No
Forced                      : No

Text #1
ID                          : 5
Format                      : UTF-8
Codec ID                    : S_TEXT/UTF8
Codec ID/Info               : UTF-8 Plain Text
Duration                    : 2 h 0 min
Bit rate                    : 4 b/s
Count of elements           : 91
Stream size                 : 4.27 KiB (0%)
Title                       : Forced
Language                    : Russian
Default                     : Yes
Forced                      : Yes

Text #2
ID                          : 6
Format                      : UTF-8
Codec ID                    : S_TEXT/UTF8
Codec ID/Info               : UTF-8 Plain Text
Duration                    : 2 h 2 min
Bit rate                    : 91 b/s
Count of elements           : 1794
Stream size                 : 82.6 KiB (0%)
Title                       : Full
Language                    : Russian
Default                     : No
Forced                      : No

Text #3
ID                          : 7
Format                      : UTF-8
Codec ID                    : S_TEXT/UTF8
Codec ID/Info               : UTF-8 Plain Text
Duration                    : 1 h 58 min
Bit rate                    : 4 b/s
Count of elements           : 79
Stream size                 : 3.65 KiB (0%)
Title                       : Forced
Language                    : Ukrainian
Default                     : No
Forced                      : No

Text #4
ID                          : 8
Format                      : UTF-8
Codec ID                    : S_TEXT/UTF8
Codec ID/Info               : UTF-8 Plain Text
Duration                    : 2 h 2 min
Bit rate                    : 102 b/s
Count of elements           : 1618
Stream size                 : 92.0 KiB (0%)
Title                       : Full
Language                    : Ukrainian
Default                     : No
Forced                      : No

Text #5
ID                          : 9
Format                      : UTF-8
Codec ID                    : S_TEXT/UTF8
Codec ID/Info               : UTF-8 Plain Text
Duration                    : 2 h 1 min
Bit rate                    : 67 b/s
Count of elements           : 2221
Stream size                 : 59.6 KiB (0%)
Title                       : SDH
Language                    : English
Default                     : No
Forced                      : No

Menu
00:00:00.000                : en:1
00:07:33.203                : en:2
00:14:56.646                : en:3
00:23:43.255                : en:4
00:31:05.613                : en:5
00:38:43.069                : en:6
00:45:26.347                : en:7
00:53:27.327                : en:8
01:00:22.033                : en:9
01:07:29.250                : en:10
01:12:55.159                : en:11
01:22:12.340                : en:12
01:29:49.087                : en:13
01:36:47.797                : en:14
01:42:08.576                : en:15
01:53:55.908                : en:16



Скриншоты:
[+] Всего файлов в раздаче - 1:
Bad Boys for Life.2020.WEB-DL.1080p.seleZen.mkv4.67 GB

Похожие раздачи по запросу - плохие:
2020-05-12 U Плохие парни навсегда / Bad Boys for Life (2020) BDRip 1080p от селезень | D, P | Лицензия 13.00 GB ↑ 664 ↓ 53
2020-03-31 U Плохие парни навсегда / Bad Boys for Life (2020) UHD WEB-DL 2160p | 4K | SDR | iTunes 19.95 GB ↑ 430 ↓ 650
2020-03-31 U Плохие парни навсегда / Bad Boys for Life (2020) WEB-DLRip от MegaPeer | iTunes 1.46 GB ↑ 1151 ↓ 252

Отзывы
Зарегистрируйтесь чтобы добавить комментарий.
Загрузите программу
  uTorrent.exe
Обратная связь
Copyleft ©