↑↓torrent.by
Поиск
Логин: Регистрация
Пароль: Восстановить пароль

Вивариум / Vivarium (2019) WEB-DL 1080p | HDrezka Studio

Скачать vivarium-2019-web-dl-1080p-hdrezka-studio.torrent
U Магнитная ссылка Размер: 6.51 GB Раздают: 303 Качают: 60 Добавлен: 2020-03-31 07:26:59
Вивариум / Vivarium (2019) WEB-DL 1080p | HDrezka Studio

Название: Вивариум
Оригинальное название: Vivarium
Год выхода: 2019
Жанр: Фантастика, детектив
Режиссер: Лоркан Финнеган
В ролях: Имоджен Путс, Даниэль Райан, Молли Макканн, Джесси Айзенберг, Джонатан Арис, Сенан Дженнингс, Инна Хардвик, Ольга Верли, Джек Хадсон

О фильме:
В поисках идеального дома молодая пара знакомится со странным агентом по недвижимости. Он привозит их в новый поселок в пригороде, а затем исчезает. Том и Джемма с ужасом понимают, что они абсолютно одни в этом жутковато-стерильном лабиринте одинаковых домов и что из него нет выхода. Вскоре их одиночество будет прервано появлением у дверей коробки с младенцем, который похож на человека лишь внешне…

 
Страна: Ирландия, Дания, Бельгия
Студия: Lovely Productions, Fantastic Films, Frakas Productions
Продолжительность: 01:38:34
Перевод: Профессиональный (многоголосый закадровый) - HDrezka Studio

Файл
Качество: WEB-DL 1080p | HDrezka Studio
Видео: AVC/H.264, 1920x800, ~8368 Кbps, 23,976 fps
Звук:
Аудио 1: AC3, 6 ch, 448 Kbps - Русский
Аудио 2: E-AC3, 6 ch, 640 Kbps - Английский
Субтитры: Русские (Forced, Full), английские (Full, SDH)


[+] Mediainfo
Общее
Уникальный идентификатор                 : 75510838498120738310495881830470746117 (0x38CEDBC6960441B10C0D3626881F8005)
Полное имя                               : Vivarium.2019.WEB-DL.1080p.W.mkv
Формат                                   : Matroska
Версия формата                           : Version 4
Размер файла                             : 6,51 Гбайт
Продолжительность                        : 1 ч. 38 м.
Общий поток                              : 9458 Кбит/сек
Название фильма                          : Vivarium.2019.WEB-DL.1080p.W
Дата кодирования                         : UTC 2020-03-30 13:17:02
Программа кодирования                    : mkvmerge v23.0.0 ('The Bride Said No') 64-bit
Библиотека кодирования                   : libebml v1.3.6 + libmatroska v1.4.9

Видео
Идентификатор                            : 1
Формат                                   : AVC
Формат/Информация                        : Advanced Video Codec
Профиль формата                          : High@L4
Настройки формата                        : CABAC / 4 Ref Frames
Параметр CABAC формата                   : Да
Параметр RefFrames формата               : 4 кадра
Идентификатор кодека                     : V_MPEG4/ISO/AVC
Продолжительность                        : 1 ч. 38 м.
Вид битрейта                             : Постоянный
Битрейт                                  : 8368 Кбит/сек
Номинальный битрейт                      : 10000 Кбит/сек
Ширина                                   : 1920 пикселей
Высота                                   : 800 пикселей
Соотношение сторон                       : 2,40:1
Режим частоты кадров                     : Постоянный
Частота кадров                           : 23,976 (24000/1001) кадра/сек
Цветовое пространство                    : YUV
Субдискретизация насыщенности            : 4:2:0
Битовая глубина                          : 8 бит
Тип развёртки                            : Прогрессивная
Бит/(Пиксели*Кадры)                      : 0.227
Размер потока                            : 5,76 Гбайт (88%)
Default                                  : Да
Forced                                   : Нет
Цветовой диапазон                        : Limited
Основные цвета                           : BT.709
Характеристики трансфера                 : BT.709
Коэффициенты матрицы                     : BT.709

Аудио #1
Идентификатор                            : 2
Формат                                   : AC-3
Формат/Информация                        : Audio Coding 3
Коммерческое название                    : Dolby Digital
Идентификатор кодека                     : A_AC3
Продолжительность                        : 1 ч. 38 м.
Вид битрейта                             : Постоянный
Битрейт                                  : 448 Кбит/сек
Каналы                                   : 6 каналов
ChannelLayout                            : L R C LFE Ls Rs
Частота                                  : 48,0 КГц
Частота кадров                           : 31,250 кадров/сек (1536 SPF)
Метод сжатия                             : С потерями
Размер потока                            : 316 Мбайт (5%)
Заголовок                                : MVO | HDrezka Studio
Язык                                     : Russian
ServiceKind                              : Complete Main
Default                                  : Да
Forced                                   : Нет

Аудио #2
Идентификатор                            : 3
Формат                                   : E-AC-3
Формат/Информация                        : Enhanced AC-3
Коммерческое название                    : Dolby Digital Plus
Идентификатор кодека                     : A_EAC3
Продолжительность                        : 1 ч. 38 м.
Вид битрейта                             : Постоянный
Битрейт                                  : 640 Кбит/сек
Каналы                                   : 6 каналов
ChannelLayout                            : L R C LFE Ls Rs
Частота                                  : 48,0 КГц
Частота кадров                           : 31,250 кадров/сек (1536 SPF)
Метод сжатия                             : С потерями
Размер потока                            : 451 Мбайт (7%)
Язык                                     : English
ServiceKind                              : Complete Main
Default                                  : Нет
Forced                                   : Нет

Текст #1
Идентификатор                            : 4
Формат                                   : UTF-8
Идентификатор кодека                     : S_TEXT/UTF8
Идентификатор кодека/Информация          : UTF-8 Plain Text
Продолжительность                        : 1 ч. 27 м.
Битрейт                                  : 0 бит/сек
ElementCount                             : 6
Размер потока                            : 334 байт (0%)
Заголовок                                : Forced
Язык                                     : Russian
Default                                  : Да
Forced                                   : Нет

Текст #2
Идентификатор                            : 5
Формат                                   : UTF-8
Идентификатор кодека                     : S_TEXT/UTF8
Идентификатор кодека/Информация          : UTF-8 Plain Text
Продолжительность                        : 1 ч. 27 м.
Битрейт                                  : 37 бит/сек
ElementCount                             : 610
Размер потока                            : 24,0 Кбайт (0%)
Заголовок                                : Full (MENINSUB)
Язык                                     : Russian
Default                                  : Нет
Forced                                   : Нет

Текст #3
Идентификатор                            : 6
Формат                                   : UTF-8
Идентификатор кодека                     : S_TEXT/UTF8
Идентификатор кодека/Информация          : UTF-8 Plain Text
Продолжительность                        : 1 ч. 33 м.
Битрейт                                  : 24 бит/сек
ElementCount                             : 689
Размер потока                            : 16,8 Кбайт (0%)
Язык                                     : English
Default                                  : Нет
Forced                                   : Нет

Текст #4
Идентификатор                            : 7
Формат                                   : UTF-8
Идентификатор кодека                     : S_TEXT/UTF8
Идентификатор кодека/Информация          : UTF-8 Plain Text
Продолжительность                        : 1 ч. 34 м.
Битрейт                                  : 31 бит/сек
ElementCount                             : 876
Размер потока                            : 21,5 Кбайт (0%)
Заголовок                                : SDH
Язык                                     : English
Default                                  : Нет
Forced                                   : Нет  



Скриншоты:
[+] Всего файлов в раздаче - 1:
Vivarium.2019.WEB-DL.1080p.W.mkv6.51 GB

Похожие раздачи по запросу - вивариум:
2020-05-14 U Вивариум / Vivarium (2019) HDRip от MegaPeer | HDrezka Studio 1.46 GB ↑ 147 ↓ 32
2020-05-14 U Вивариум / Vivarium (2019) BDRip 1080p | P, A 10.43 GB ↑ 188 ↓ 47
2020-03-28 U Вивариум / Vivarium (2019) WEBRip 720p | BadBajo 3.60 GB ↑ 152 ↓ 52
2020-03-27 U Вивариум / Vivarium (2019) WEB-DL 1080p l BadBajo 3.66 GB ↑ 902 ↓ 355

Отзывы
Зарегистрируйтесь чтобы добавить комментарий.
Обратная связь
Copyleft ©