↑↓torrent.by
Поиск
Логин: Регистрация
Пароль: Восстановить пароль

Ню (2018) WEB-DL 1080p | iTunes

Скачать nyu-2018-web-dl-1080p-itunes.torrent
U Магнитная ссылка Размер: 2.45 GB Раздают: 391 Качают: 49 Добавлен: 2020-03-31 07:27:33
Ню (2018) WEB-DL 1080p | iTunes

Название: Ню
Год выпуска: 2018
Жанр:  Мелодрама
Режиссёр: Ян Гэ
В ролях: Ян Гэ, Евгений Романцов, Демид Усачёв, Фабио Брессан, Дарья Ястребова, Георгий Кудренко, Александр Кривошапкин, Никита Еленев

О фильме: Молодая иностранка ищет в Москве свою любовь, идеал, мечту. Но что делать, если не можешь найти даже партнера на одну ночь? Её неправильно понимают или причина в ней самой? Она изо дня в день ведет свой видеоблог и пытается понять причину своего одиночества в большом городе.

Страна: Россия
Студия: Planeta Inform
Продолжительность: 01:04:35
Перевод: Не требуется | iTunes

Файл
Качество: WEB-DL 1080p
Контейнер: MKV
Видео: MPEG-4 AVC, 1920x1080, 4941 Kbps, 25.000 fps
Аудио: Russian: AC3, 48.0 KHz, 6 ch, 384 kbps - iTunes
Субтитры: Нет

Релиз:


[+] MediaInfo
General
Unique ID : 191143766669700134415481978855976491282 (0x8FCCF34CD6AF8D48A62E5B662A965912)
Complete name : NYU_2018_WEB-DL_1080p-BLUEBIRD.mkv
Format : Matroska
Format version : Version 4 / Version 2
File size : 2.45 GiB
Duration : 1 h 4 min
Overall bit rate : 5 433 kb/s
Encoded date : UTC 2020-03-30 07:54:26
Writing application : mkvmerge v6.1.0 ('Old Devil') built on Mar 2 2013 14:32:37
Writing library : libebml v1.3.0 + libmatroska v1.4.0
Cover : Yes
Attachments : cover.png

Video
ID : 1
Format : AVC
Format/Info : Advanced Video Codec
Format profile : High@L4
Format settings : CABAC / 4 Ref Frames
Format settings, CABAC : Yes
Format settings, ReFrames : 4 frames
Codec ID : V_MPEG4/ISO/AVC
Duration : 1 h 4 min
Bit rate : 4 941 kb/s
Width : 1 920 pixels
Height : 1 080 pixels
Display aspect ratio : 16:9
Frame rate mode : Constant
Frame rate : 25.000 FPS
Color space : YUV
Chroma subsampling : 4:2:0
Bit depth : 8 bits
Scan type : Progressive
Bits/(Pixel*Frame) : 0.095
Stream size : 2.23 GiB (91%)
Language : English
Default : Yes
Forced : No
Color range : Limited
Color primaries : BT.709
Transfer characteristics : BT.709
Matrix coefficients : BT.709

Audio
ID : 2
Format : AC-3
Format/Info : Audio Coding 3
Codec ID : A_AC3
Duration : 1 h 4 min
Bit rate mode : Constant
Bit rate : 384 kb/s
Channel(s) : 6 channels
Channel positions : Front: L C R, Side: L R, LFE
Sampling rate : 48.0 kHz
Frame rate : 31.250 FPS (1536 SPF)
Bit depth : 16 bits
Compression mode : Lossy
Stream size : 177 MiB (7%)
Title : [ORIGINAL] DD 5.1 @ 384 kbps (iTunes)
Language : Russian
Service kind : Complete Main
Default : Yes
Forced : No

Menu
00:00:00.000 : en:Глава 1
00:07:55.120 : en:Глава 2
00:15:25.760 : en:Глава 3
00:22:53.640 : en:Глава 4
00:30:43.160 : en:Глава 5
00:38:47.640 : en:Глава 6
00:48:23.480 : en:Глава 7
00:56:07.960 : en:Глава 8



Скриншоты:
[+] Всего файлов в раздаче - 1:
NYU_2018_WEB-DL_1080p-BLUEBIRD.mkv2.45 GB

Показать еще раздачи по запросу itunes:
Сегодня U Дожить до утра / Survive the Night (2020) BDRip от MegaPeer | Театральная версия | iTunes 1.46 GB ↑ 106 ↓ 31
Сегодня U Бекки / Becky (2020) WEB-DLRip-AVC | iTunes 1.45 GB ↑ 36 ↓ 12
Сегодня U Дожить до утра / Survive the Night (2020) BDRemux 1080p от селезень | Театральная версия | iTunes 24.18 GB ↑ 36 ↓ 18
Сегодня U Бекки / Becky (2020) WEB-DLRip от MegaPeer | iTunes 1.46 GB ↑ 52 ↓ 23
Сегодня U Бекки / Becky (2020) WEB-DL 1080p | iTunes 4.12 GB ↑ 183 ↓ 48
Вчера U Афера в Майами / Wasp Network (2019) BDRip 1080p | iTunes 8.83 GB ↑ 127 ↓ 118
Вчера U Вперёд / Onward (2020) HDRip от MegaPeer | iTunes 1.46 GB ↑ 354 ↓ 8

Отзывы
Зарегистрируйтесь чтобы добавить комментарий.
Обратная связь
Copyleft ©