↑↓torrent.by
Поиск
Логин: Регистрация
Пароль: Восстановить пароль

Плохие парни навсегда / Bad Boys for Life (2020) UHD WEB-DL 2160p | 4K | SDR | iTunes

Скачать plohie-parni-navsegda-bad-boys-for-life-2020-uhd-web-dl-2160p-4k-sdr-itunes.torrent
U Магнитная ссылка Размер: 19.95 GB Раздают: 430 Качают: 650 Добавлен: 2020-03-31 18:21:38
Плохие парни навсегда / Bad Boys for Life (2020) UHD WEB-DL 2160p | 4K | SDR | iTunes

Название: Плохие парни навсегда
Оригинальное название: Bad Boys for Life
Год выхода: 2020
Жанр: Боевик, Триллер, Комедия, Криминал
Режиссер: Адиль Эль Арби, Билал Фалла
В ролях: Уилл Смит, Мартин Лоуренс, Ванесса Энн Хадженс, Александр Людвиг, Чарльз Мелтон, Паола Нуньес, Кейт дель Кастильо, Ники Джем, Джо Пантольяно, Джейкоб Скип

О фильме:
Детективы Майк Лоури и Маркус Бёрнетт снова в деле! Правда, их отстраняют от всех операций, но разве отчаянных друзей когда-нибудь что-либо останавливало? Ведь на этот раз на Майка открывает охоту некто из его прошлой жизни. Так что парням придется отжечь по полной!

Страна: США, Мексика
Студия: Columbia Pictures, 2.0 Entertainment, Columbia Pictures Mexico, Don Simpson/Jerry Bruckheimer Films, Overbrook Entertainment
Продолжительность: 02:03:57
Перевод: Дублированный (iTunes)
Субтитры: Русские (Forced, Full), Украинские (Forced, Full), Английские (SDH)

Релиз от: DOMKPAT
Качество: UHD WEB-DL 2160p (SDR)
Видео: H.265/HEVC, 3840x2160, ~21.9 Mbps, 23.976 fps
Аудио 1: АС3, 6 ch, 384 Kbps - Русский (DUB, iTunes)
Аудио 2: АAC, 2 ch, 126 Kbps - Украинский (DUB, iTunes)
Аудио 3: E-АС3, 6 ch, 640 Kbps - Английский


[+] MediaInfo:
Общее
Unique ID : 203369545910429567356026883415515205163 (0x98FF8CC14CF436BD19DC92EB88920E2B)
Complete name : C:UsersDOMKPATDesktopBad.Boys.For.Life.2020.WEB-DL.2160p.SDR.DOMKPAT.mkv
Format : Matroska
Format version : Version 4
File size : 20,0 Гбайт
Duration : 2 ч. 3 м.
Overall bit rate : 23,0 Мбит/сек
Movie name : Bad Boys for Life 2020 from DOMKPAT
Encoded date : UTC 2020-03-31 10:12:58
Writing application : mkvmerge v44.0.0 ('Domino') 64-bit
Writing library : libebml v1.3.10 + libmatroska v1.5.2

Видео
ID : 1
Format : HEVC
Format/Info : High Efficiency Video Coding
Format profile : Main 10@L5@High
Codec ID : V_MPEGH/ISO/HEVC
Duration : 2 ч. 3 м.
Bit rate : 21,9 Мбит/сек
Width : 3840 пикселей
Height : 2160 пикселей
Display aspect ratio : 16:9
Frame rate mode : Постоянный
Frame rate : 23,976 (24000/1001) кадра/сек
Color space : YUV
Chroma subsampling : 4:2:0
Bit depth : 10 бит
Bits/(Pixel*Frame) : 0.110
Stream size : 19,0 Гбайт (95%)
Default : Да
Forced : Нет
Color range : Limited
Color primaries : BT.709
Transfer characteristics : BT.709
Matrix coefficients : BT.709

Аудио #1
ID : 2
Format : AC-3
Format/Info : Audio Coding 3
Commercial name : Dolby Digital
Codec ID : A_AC3
Duration : 2 ч. 3 м.
Bit rate mode : Постоянный
Bit rate : 384 Кбит/сек
Channel(s) : 6 каналов
Channel layout : L R C LFE Ls Rs
Sampling rate : 48,0 КГц
Frame rate : 31,250 кадров/сек (1536 SPF)
Compression mode : С потерями
Stream size : 340 Мбайт (2%)
Title : iTunes
Language : Russian
Service kind : Complete Main
Default : Нет
Forced : Да

Аудио #2
ID : 3
Format : AAC LC
Format/Info : Advanced Audio Codec Low Complexity
Codec ID : A_AAC-2
Duration : 2 ч. 3 м.
Bit rate : 126 Кбит/сек
Channel(s) : 2 канала
Channel layout : L R
Sampling rate : 44,1 КГц
Frame rate : 43,066 кадра/сек (1024 SPF)
Compression mode : С потерями
Stream size : 111 Мбайт (1%)
Title : iTunes
Language : Ukrainian
Default : Нет
Forced : Нет

Аудио #3
ID : 4
Format : E-AC-3
Format/Info : Enhanced AC-3
Commercial name : Dolby Digital Plus
Codec ID : A_EAC3
Duration : 2 ч. 3 м.
Bit rate mode : Постоянный
Bit rate : 640 Кбит/сек
Channel(s) : 6 каналов
Channel layout : L R C LFE Ls Rs
Sampling rate : 48,0 КГц
Frame rate : 31,250 кадров/сек (1536 SPF)
Compression mode : С потерями
Stream size : 567 Мбайт (3%)
Language : English
Service kind : Complete Main
Default : Да
Forced : Нет

Текст #1
ID : 5
Format : UTF-8
Codec ID : S_TEXT/UTF8
Codec ID/Info : UTF-8 Plain Text
Duration : 2 ч. 0 м.
Bit rate : 4 бит/сек
Count of elements : 91
Stream size : 4,27 Кбайт (0%)
Title : Forced
Language : Russian
Default : Да
Forced : Да

Текст #2
ID : 6
Format : UTF-8
Codec ID : S_TEXT/UTF8
Codec ID/Info : UTF-8 Plain Text
Duration : 2 ч. 2 м.
Bit rate : 91 бит/сек
Count of elements : 1794
Stream size : 82,6 Кбайт (0%)
Title : Full
Language : Russian
Default : Нет
Forced : Нет

Текст #3
ID : 7
Format : UTF-8
Codec ID : S_TEXT/UTF8
Codec ID/Info : UTF-8 Plain Text
Duration : 1 ч. 58 м.
Bit rate : 4 бит/сек
Count of elements : 79
Stream size : 3,65 Кбайт (0%)
Title : Forced
Language : Ukrainian
Default : Нет
Forced : Нет

Текст #4
ID : 8
Format : UTF-8
Codec ID : S_TEXT/UTF8
Codec ID/Info : UTF-8 Plain Text
Duration : 2 ч. 2 м.
Bit rate : 102 бит/сек
Count of elements : 1618
Stream size : 92,0 Кбайт (0%)
Title : Full
Language : Ukrainian
Default : Нет
Forced : Нет

Текст #5
ID : 9
Format : UTF-8
Codec ID : S_TEXT/UTF8
Codec ID/Info : UTF-8 Plain Text
Duration : 2 ч. 1 м.
Bit rate : 67 бит/сек
Count of elements : 2221
Stream size : 59,6 Кбайт (0%)
Title : SDH
Language : English
Default : Нет
Forced : Нет

Меню
00:00:00.000 : en:1
00:07:33.203 : en:2
00:14:56.646 : en:3
00:23:43.255 : en:4
00:31:05.613 : en:5
00:38:43.069 : en:6
00:45:26.347 : en:7
00:53:27.327 : en:8
01:00:22.033 : en:9
01:07:29.250 : en:10
01:12:55.159 : en:11
01:22:12.340 : en:12
01:29:49.087 : en:13
01:36:47.797 : en:14
01:42:08.576 : en:15
01:53:55.908 : en:16



Скриншоты:
[+] Всего файлов в раздаче - 1:
Bad.Boys.For.Life.2020.WEB-DL.2160p.SDR.DOMKPAT.mkv19.95 GB

Похожие раздачи по запросу - плохие:
2020-05-12 U Плохие парни навсегда / Bad Boys for Life (2020) BDRip 1080p от селезень | D, P | Лицензия 13.00 GB ↑ 664 ↓ 53
2020-03-31 U Плохие парни навсегда / Bad Boys for Life (2020) WEB-DLRip от MegaPeer | iTunes 1.46 GB ↑ 1151 ↓ 252
2020-03-31 U Плохие парни навсегда / Bad Boys for Life (2020) WEB-DL 1080p от селезень | iTunes 4.67 GB ↑ 1019 ↓ 593

Отзывы
Зарегистрируйтесь чтобы добавить комментарий.
Загрузите программу
  uTorrent.exe
Обратная связь
Copyleft ©