↑↓torrent.by
Поиск
Логин: Регистрация
Пароль: Восстановить пароль

Яга. Кошмар тёмного леса (2020) WEB-DL 1080p | iTunes

Скачать yaga-koshmar-temnogo-lesa-2020-web-dl-1080p-itunes.torrent
U Магнитная ссылка Размер: 3.36 GB Раздают: 814 Качают: 437 Добавлен: 2020-04-01 08:07:29
Яга. Кошмар тёмного леса (2020) WEB-DL 1080p | iTunes

Название: Яга. Кошмар тёмного леса
Год выхода: 2020
Жанр:  Ужасы
Режиссер: Святослав Подгаевский
В ролях: Олег Чугунов, Глаша Голубева, Артём Жигулин, Игорь Хрипунов, Светлана Устинова, Алексей Розин, Марьяна Спивак, Марта Тимофеева, Даниил Филиппов, Евгения Евстигнеева, Ольга Макеева

О фильме: В центре сюжета — молодая семья, которая переехала в новую квартиру на окраине города. Нанятая ими для новорожденной дочери няня быстро вошла в доверие. Однако старший мальчик, Егор, рассказывает о пугающем поведении женщины, но родители ему не верят. Камеры наблюдения, установленные отцом для успокоения, лишь подтверждают — всё в порядке. И вот однажды Егор, вернувшись домой, не находит никаких следов ни няни, ни маленькой сестры, а родители пребывают в странном трансе и даже не помнят, что у них была дочь. Тогда Егор вместе с друзьями отправляется на поиски, в ходе которых выяснится, что няня — древний славянский демон.

Страна: Россия
Студия: Нон-стоп Продакшн, QS Films
Продолжительность: 01:36:34
Перевод: Не требуется | iTunes

Файл
Качество: WEB-DL 1080p
Контейнер: MKV
Видео: MPEG-4 AVC, 1920x804, 4588 Kbps, 24.000 fps
Аудио: Russian: AC3, 48.0 KHz, 6 ch, 384 kbps - iTunes
Субтитры: Нет

Релиз:


[+] MediaInfo
General
Unique ID                                : 17204913720282621795016084675216070589 (0xCF18BBCFC715E8D18A013594040D7BD)
Complete name                            : JAGA_2020_WEB-DL_1080p-BLUEBIRD.mkv
Format                                   : Matroska
Format version                           : Version 4 / Version 2
File size                                : 3.36 GiB
Duration                                 : 1 h 36 min
Overall bit rate                         : 4 976 kb/s
Encoded date                             : UTC 2020-03-30 19:31:55
Writing application                      : mkvmerge v43.0.0 ('The Quartermaster') 64-bit
Writing library                          : libebml v1.3.10 + libmatroska v1.5.2
Cover                                    : Yes
Attachments                              : cover.png

Video
ID                                       : 1
Format                                   : AVC
Format/Info                              : Advanced Video Codec
Format profile                           : High@L4
Format settings, CABAC                   : Yes
Format settings, RefFrames               : 5 frames
Codec ID                                 : V_MPEG4/ISO/AVC
Duration                                 : 1 h 36 min
Bit rate                                 : 4 588 kb/s
Width                                    : 1 920 pixels
Height                                   : 804 pixels
Display aspect ratio                     : 2.40:1
Frame rate mode                          : Constant
Frame rate                               : 24.000 FPS
Color space                              : YUV
Chroma subsampling                       : 4:2:0
Bit depth                                : 8 bits
Scan type                                : Progressive
Bits/(Pixel*Frame)                       : 0.124
Stream size                              : 3.09 GiB (92%)
Language                                 : English
Default                                  : Yes
Forced                                   : No
Color range                              : Limited
Color primaries                          : BT.709
Transfer characteristics                 : BT.709
Matrix coefficients                      : BT.709

Audio
ID                                       : 2
Format                                   : AC-3
Format/Info                              : Audio Coding 3
Format settings, Endianness              : Big
Codec ID                                 : A_AC3
Duration                                 : 1 h 36 min
Bit rate mode                            : Constant
Bit rate                                 : 384 kb/s
Channel(s)                               : 6 channels
Channel positions                        : Front: L C R, Side: L R, LFE
Sampling rate                            : 48.0 kHz
Frame rate                               : 31.250 FPS (1536 SPF)
Bit depth                                : 16 bits
Compression mode                         : Lossy
Stream size                              : 265 MiB (8%)
Title                                    : [ORIGINAL] DD 5.1 @ 384 kbps (iTunes)
Language                                 : Russian
Service kind                             : Complete Main
Default                                  : Yes
Forced                                   : No

Menu
00:00:00.000                             : en:Глава 1
00:02:06.625                             : en:Глава 2
00:08:39.333                             : en:Глава 3
00:16:18.374                             : en:Глава 4
00:23:20.290                             : en:Глава 5
00:27:37.790                             : en:Глава 6
00:35:50.831                             : en:Глава 7
00:39:48.164                             : en:Глава 8
00:45:21.997                             : en:Глава 9
00:51:23.038                             : en:Глава 10
00:57:05.329                             : en:Глава 11
01:03:08.120                             : en:Глава 12
01:08:55.828                             : en:Глава 13
01:15:15.119                             : en:Глава 14
01:20:58.119                             : en:Глава 15
01:27:27.535                             : en:Глава 16
01:31:19.701                             : en:Глава 17



Скриншоты:
[+] Всего файлов в раздаче - 1:
JAGA_2020_WEB-DL_1080p-BLUEBIRD.mkv3.36 GB

Похожие раздачи по запросу - кошмар:
2020-06-15 U Яга. Кошмар тёмного леса (2020) BDRip-AVC от Generalfilm | GER Transfer | Лицензия 1.46 GB ↑ 68 ↓ 16
2020-06-14 U Яга. Кошмар тёмного леса (2020) BDRip от Twister & ExKinoRay | GER Transfer | Лицензия 1.46 GB ↑ 70 ↓ 12
2020-06-13 U Яга. Кошмар тёмного леса (2020) BDRip 1080p от ExKinoRay | GER Transfer | Лицензия 10.54 GB ↑ 85 ↓ 41
2020-04-01 U Яга. Кошмар тёмного леса (2020) WEB-DLRip | iTunes 1.46 GB ↑ 1293 ↓ 432

Отзывы
Зарегистрируйтесь чтобы добавить комментарий.
Загрузите программу
  uTorrent.exe
Обратная связь
Copyleft ©