↑↓torrent.by
Поиск
Логин: Регистрация
Пароль: Восстановить пароль

Побег из Претории / Escape from Pretoria (2020) BDRip 1080p | HDrezka Studio

Скачать pobeg-iz-pretorii-escape-from-pretoria-2020-bdrip-1080p-hdrezka-studio.torrent
U Магнитная ссылка Размер: 11.48 GB Раздают: 98 Качают: 81 Добавлен: 2020-04-01 15:08:41
Побег из Претории / Escape from Pretoria (2020) BDRip 1080p | HDrezka Studio

Название: Побег из Претории
Оригинальное название: Escape from Pretoria
Год выхода: 2020
Жанр: Триллер
Режиссер: Фрэнсис Аннан
В ролях: Дэниэл Рэдклифф, Иэн Харт, Даниэль Уэббер, Нэйтан Пейдж, Стивен Хантер, Марк Леонард Винтер, Ратидзо Мамбо, Жанетт Кронин, Дэвид Уилсон, Адам Овадия

О фильме:
Двое борцов за свободу отбывают срок в одной из самых строгих тюрем мира — в «Претории». Вместе с другими узниками они планируют дерзкий и опасный побег. Но придумать план — это только первый шаг. Шаг второй — реализация плана.

 
Страна: Великобритания, Австралия
Студия: Arclight Films, Spier Films, Premiere Picture
Продолжительность: 01:45:58
Перевод: Профессиональный (многоголосый закадровый) - HDrezka Studio

Файл
Качество: BDRip 1080p | CHD
Видео: AVC/H.264, 1920x800, ~13,6 Мbps, 23,976 fps
Звук:
Аудио 1: AC3, 6 ch, 448 Kbps - Русский
Аудио 2: DTS, 6 ch, 1509 Kbps - Английский
Субтитры: русские (Forced, Full), английские (Full)


[+] Mediainfo
Общее
Уникальный идентификатор                 : 276757142287819895041161912548991011321 (0xD0357C9CAA304CC19ED20E69CAAD89F9)
Полное имя                               : Escape from Pretoria.2020.BDRip.1080p.W.mkv
Формат                                   : Matroska
Версия формата                           : Version 4
Размер файла                             : 11,5 Гбайт
Продолжительность                        : 1 ч. 45 м.
Общий поток                              : 15,5 Мбит/сек
Название фильма                          : Escape from Pretoria.2020.BDRip.1080p.W
Дата кодирования                         : UTC 2020-03-31 21:40:34
Программа кодирования                    : mkvmerge v23.0.0 ('The Bride Said No') 64-bit
Библиотека кодирования                   : libebml v1.3.6 + libmatroska v1.4.9

Видео
Идентификатор                            : 1
Формат                                   : AVC
Формат/Информация                        : Advanced Video Codec
Профиль формата                          : High@L4.1
Настройки формата                        : CABAC / 4 Ref Frames
Параметр CABAC формата                   : Да
Параметр RefFrames формата               : 4 кадра
Идентификатор кодека                     : V_MPEG4/ISO/AVC
Продолжительность                        : 1 ч. 45 м.
Битрейт                                  : 13,6 Мбит/сек
Ширина                                   : 1920 пикселей
Высота                                   : 800 пикселей
Соотношение сторон                       : 2,40:1
Режим частоты кадров                     : Постоянный
Частота кадров                           : 23,976 (24000/1001) кадра/сек
Цветовое пространство                    : YUV
Субдискретизация насыщенности            : 4:2:0
Битовая глубина                          : 8 бит
Тип развёртки                            : Прогрессивная
Бит/(Пиксели*Кадры)                      : 0.368
Размер потока                            : 10,0 Гбайт (87%)
Библиотека кодирования                   : x264 core 157 r2867+150 7e91e0e t_mod_Custom_2 [8-bit@all X86_64]
Настройки программы                      : cabac=1 / ref=4 / deblock=1:-3:-3 / analyse=0x3:0x133 / me=umh / subme=11 / psy=1 / fade_compensate=0.00 / psy_rd=0.90:0.10 / mixed_ref=1 / me_range=64 / chroma_me=1 / trellis=2 / 8x8dct=1 / cqm=0 / deadzone=21,11 / fast_pskip=0 / chroma_qp_offset=-4 / threads=25 / lookahead_threads=4 / sliced_threads=0 / nr=0 / decimate=1 / interlaced=0 / bluray_compat=0 / constrained_intra=0 / fgo=0 / bframes=8 / b_pyramid=2 / b_adapt=2 / b_bias=0 / direct=3 / weightb=1 / open_gop=0 / weightp=2 / keyint=250 / keyint_min=23 / scenecut=40 / intra_refresh=0 / rc_lookahead=60 / rc=crf / mbtree=0 / crf=17.0000 / qcomp=0.70 / qpmin=0:0:0 / qpmax=69:69:69 / qpstep=4 / vbv_maxrate=35000 / vbv_bufsize=35000 / crf_max=0.0 / nal_hrd=none / filler=0 / ip_ratio=1.40 / pb_ratio=1.30 / aq=3:1.00 / aq-sensitivity=10.00 / aq-factor=1.00:1.00:1.00 / aq2=0 / aq3=0
Язык                                     : English
Default                                  : Да
Forced                                   : Нет

Аудио #1
Идентификатор                            : 2
Формат                                   : AC-3
Формат/Информация                        : Audio Coding 3
Коммерческое название                    : Dolby Digital
Идентификатор кодека                     : A_AC3
Продолжительность                        : 1 ч. 45 м.
Вид битрейта                             : Постоянный
Битрейт                                  : 448 Кбит/сек
Каналы                                   : 6 каналов
ChannelLayout                            : L R C LFE Ls Rs
Частота                                  : 48,0 КГц
Частота кадров                           : 31,250 кадров/сек (1536 SPF)
Метод сжатия                             : С потерями
Размер потока                            : 340 Мбайт (3%)
Заголовок                                : MVO  (HDRezka Studio)
Язык                                     : Russian
ServiceKind                              : Complete Main
Default                                  : Да
Forced                                   : Нет

Аудио #2
Идентификатор                            : 3
Формат                                   : DTS
Формат/Информация                        : Digital Theater Systems
Идентификатор кодека                     : A_DTS
Продолжительность                        : 1 ч. 45 м.
Вид битрейта                             : Постоянный
Битрейт                                  : 1509 Кбит/сек
Каналы                                   : 6 каналов
ChannelLayout                            : C L R Ls Rs LFE
Частота                                  : 48,0 КГц
Частота кадров                           : 93,750 кадра/сек (512 SPF)
Битовая глубина                          : 24 бит
Метод сжатия                             : С потерями
Размер потока                            : 1,12 Гбайт (10%)
Язык                                     : English
Default                                  : Нет
Forced                                   : Нет

Текст #1
Идентификатор                            : 4
Формат                                   : UTF-8
Идентификатор кодека                     : S_TEXT/UTF8
Идентификатор кодека/Информация          : UTF-8 Plain Text
Продолжительность                        : 1 ч. 40 м.
Битрейт                                  : 1 бит/сек
ElementCount                             : 12
Размер потока                            : 1,05 Кбайт (0%)
Заголовок                                : Forced
Язык                                     : Russian
Default                                  : Да
Forced                                   : Нет

Текст #2
Идентификатор                            : 5
Формат                                   : UTF-8
Идентификатор кодека                     : S_TEXT/UTF8
Идентификатор кодека/Информация          : UTF-8 Plain Text
Продолжительность                        : 1 ч. 39 м.
Битрейт                                  : 47 бит/сек
ElementCount                             : 798
Размер потока                            : 34,5 Кбайт (0%)
Заголовок                                : Full
Язык                                     : Russian
Default                                  : Нет
Forced                                   : Нет

Текст #3
Идентификатор                            : 6
Формат                                   : UTF-8
Идентификатор кодека                     : S_TEXT/UTF8
Идентификатор кодека/Информация          : UTF-8 Plain Text
Продолжительность                        : 1 ч. 38 м.
Битрейт                                  : 33 бит/сек
ElementCount                             : 825
Размер потока                            : 24,0 Кбайт (0%)
Заголовок                                : Full
Язык                                     : English
Default                                  : Нет
Forced                                   : Нет

Меню
00:00:00.000                             : en:绗?01 绔?
00:06:12.581                             : en:绗?02 绔?
00:14:09.807                             : en:绗?03 绔?
00:20:45.244                             : en:绗?04 绔?
00:26:29.588                             : en:绗?05 绔?
00:32:03.130                             : en:绗?06 绔?
00:38:09.954                             : en:绗?07 绔?
00:46:35.835                             : en:绗?08 绔?
00:52:06.749                             : en:绗?09 绔?
00:58:39.015                             : en:绗?10 绔?
01:06:19.976                             : en:绗?11 绔?
01:13:22.064                             : en:绗?12 绔?
01:20:52.264                             : en:绗?13 绔?
01:27:16.481                             : en:绗?14 绔?
01:33:55.421                             : en:绗?15 绔?
01:40:58.469                             : en:绗?16 绔?



Скриншоты:
[+] Всего файлов в раздаче - 1:
Escape from Pretoria.2020.BDRip.1080p_W.mkv11.48 GB

Показать еще раздачи по запросу побег:
2020-03-24 U Побег из Претории / Escape from Pretoria (2020) WEB-DLRip-AVC от ExKinoRay | HDrezka Studio 745.00 MB ↑ 251 ↓ 19
2020-03-23 U Побег из Претории / Escape from Pretoria (2020) WEB-DLRip от MegaPeer | HDrezka Studio 1.46 GB ↑ 447 ↓ 184
2020-03-23 U Побег из Претории / Escape from Pretoria (2020) WEB-DL 1080p | HDrezka Studio 5.46 GB ↑ 268 ↓ 198
2020-03-12 U Побег из Претории / Escape from Pretoria (2020) WEB-DL 1080p | Mallorn 5.61 GB ↑ 346 ↓ 197
2020-03-12 U Побег из Претории / Escape from Pretoria (2020) WEB-DL 720p | L 2.80 GB ↑ 404 ↓ 181
2020-03-11 U Побег из Претории / Escape from Pretoria (2020) WEB-DLRip от ExKinoRay | Sub 1.45 GB ↑ 395 ↓ 122
2019-11-14 U Побег из джунглей / Boonie Bears: Blast Into the Past (2019) WEB-DLRip | iTunes 1.46 GB ↑ 292 ↓ 110

Отзывы
Зарегистрируйтесь чтобы добавить комментарий.
Обратная связь
Copyleft ©