↑↓torrent.by
Поиск
Логин: Регистрация
Пароль: Восстановить пароль

Колл-центр [01-08 из 08] (2020) WEBRip от GeneralFilm

Скачать koll-centr-01-08-iz-2020-webrip-ot-generalfilm.torrent
U Магнитная ссылка Размер: 4.36 GB Раздают: 84 Качают: 84 Добавлен: 2020-04-03 07:40:15
Колл-центр [01-08 из 08] (2020) WEBRip от GeneralFilm

Оригинальное название: Колл-центр
Год выпуска: 2020
Жанр:  Драма, мистика, триллер
Выпущено: Россия, «PREMIER Studios»
Режиссер: Наталья Меркулова, Алексей Чупов
В ролях: Павел Табаков, Владимир Яглыч, Юлия Хлынина, Анатолий Белый, Сабина Ахмедова, Мадлен Джабраилова, Никита Тарасов, Аскар Нигамедзянов, Зоя Кайдановская, Полина Пушкарук, Ольга Веникова, Леван Хурция, Стася Милославская, Тарас Епифанцев, Константин Белошапка, Наталья Кудряшова, Алиса Сельникова, Егор Шереметьев, Екатерина Волкова, Антон Ерёмин

О фильме: Москва. Высотка. Здесь, на 25-м этаже находится офис колл-центра «Интернет-магазин для взрослых». Однажды утром, как обычно придя на работу, его двенадцать сотрудников вдруг узнают, что в помещении - бомба. Голоса неизвестных, представившихся Папой и Мамой, угрожают взорвать ее в любой момент, если заложники не будут выполнять их указания. Пока тикает бомба, им предстоит испытать на себе абсолютную власть невидимых садистов и узнать о жизни друг друга такое, о чём они даже не подозревали.

Качество: WEBRip
Видео: XviD build 73, 720x320 (2.25:1), 25.000 fps, ~ 1540 Kbps (~ 0.267 bit/pixel)
Аудио: 48.0 kHz, MP3, 2/0 ch, 192 kbps
Продолжительность: 8 x ~ 00:45:00
Перевод: Не требуется [Русский]
Cубтитры: нет

Внимание! Присутствует ненормативная лексика

Релиз:


[+] MediaInfo
General
Complete name               : D:RazdachiKoll-Centr.2020.WEBRip.GeneralFilm1.Koll-Centr.avi
Format                      : AVI
Format/Info                 : Audio Video Interleave
File size                   : 557 MiB
Duration                    : 44 min 44 s
Overall bit rate            : 1 741 kb/s
Writing application         : VirtualDubMod 1.5.10.3 | www.virtualdub-fr.org || (build 2550/release)
Writing library             : VirtualDubMod build 2550/release

Video
ID                          : 0
Format                      : MPEG-4 Visual
Format profile              : Advanced Simple@L5
Format settings             : BVOP1 / Custom Matrix
Format settings, BVOP       : 1
Format settings, QPel       : No
Format settings, GMC        : No warppoints
Format settings, Matrix     : Custom
Codec ID                    : XVID
Codec ID/Hint               : XviD
Duration                    : 44 min 44 s
Bit rate                    : 1 539 kb/s
Width                       : 720 pixels
Height                      : 320 pixels
Display aspect ratio        : 2.25:1
Frame rate                  : 25.000 FPS
Color space                 : YUV
Chroma subsampling          : 4:2:0
Bit depth                   : 8 bits
Scan type                   : Progressive
Compression mode            : Lossy
Bits/(Pixel*Frame)          : 0.267
Stream size                 : 493 MiB (88%)
Writing library             : XviD 73

Audio
ID                          : 1
Format                      : MPEG Audio
Format version              : Version 1
Format profile              : Layer 3
Codec ID                    : 55
Codec ID/Hint               : MP3
Duration                    : 44 min 44 s
Bit rate mode               : Constant
Bit rate                    : 192 kb/s
Channel(s)                  : 2 channels
Sampling rate               : 48.0 kHz
Frame rate                  : 41.667 FPS (1152 SPF)
Compression mode            : Lossy
Stream size                 : 61.4 MiB (11%)
Alignment                   : Aligned on interleaves
Interleave, duration        : 40  ms (1.00 video frame)
Interleave, preload duratio : 504  ms
Writing library             : LAME3.99r
Encoding settings           : -m s -V 4 -q 2 -lowpass 18.6 -b 192



Скриншоты:
[+] Всего файлов в раздаче - 8:
01.Koll-Centr.avi557.12 MB
02.Koll-Centr.avi557.85 MB
03.Koll-Centr.avi557.30 MB
04.Koll-Centr.avi557.82 MB
05.Koll-Centr.avi557.38 MB
06.Koll-Centr.avi557.51 MB
07.Koll-Centr.avi557.54 MB
08.Koll-Centr.avi558.54 MB

Похожие раздачи по запросу - колл:
2020-04-03 U Колл-центр [S01] (2020) WEBRip 1080p 12.79 GB ↑ 499 ↓ 115
2020-04-02 U Колл-центр [S01] (2020) SATRip 5.21 GB ↑ 797 ↓ 1487

Отзывы
Зарегистрируйтесь чтобы добавить комментарий.
Загрузите программу
  uTorrent.exe
Обратная связь
Copyleft ©