↑↓torrent.by
Поиск
Логин: Регистрация
Пароль: Восстановить пароль

Dragon Quest: Твоя история / Dragon Quest: Your Story (2019) WEB-DL 1080p | Flarrow Films

Скачать dragon-quest-tvoya-istoriya-your-story-2019-web-dl-1080p-flarrow-films.torrent
U Магнитная ссылка Размер: 4.24 GB Раздают: 34 Качают: 15 Добавлен: 2020-04-06 05:19:57
Dragon Quest: Твоя история / Dragon Quest: Your Story (2019) WEB-DL 1080p | Flarrow Films

Название: Dragon Quest: Твоя история
Оригинальное название: Dragon Quest: Your Story
Год выхода: 2019
Жанр: аниме, мультфильм, приключения, фэнтези
Режиссер: Такаси Ямадзаки
В ролях: Касуми Аримура, Стивен Блум, Шон Конде Спельман, Джейкоб Крэйнер, Тревор Дивэлл, Пол Гайет, Ксанте Хюн, Сисси Джонс, Нил Каплан, Джулиан Лернер

О фильме:
Сюжет основан на игре Dragon Quest V: Hand of the Heavenly Bride. Герой по имени Лука отправляется в опасное путешествие, чтобы спасти свою мать от злодея Ладьи. Ему потребуется найти небесного героя, способного одолеть зло при помощи своего великого меча.

Страна: США
Продолжительность: 01:42:32
Перевод: Профессиональный (многоголосый, закадровый) | Flarrow Films

Файл
Формат: MKV
Кодек: MPEG-4 AVC
Качество: WEB-DL 1080p
Видео: 1920х1080, ~ 8 430 kb/s, 23.976 FPS, 8 bits
Звук: AC-3, 320 kb/s, 2 channels, 48.0 kHz
Субтитры: отсутствуют

Релиз от: Flarrow Films
Примечание: Без интро Flarrow Films


[+] MediaInfo

General
Unique ID                   : 204642132665761006895237145005352072242 (0x99F4A420564E24D922735C10EBA0B432)
Complete name               : C:FlarrowDragon Quest - Your Story.mkv
Format                      : Matroska
Format version              : Version 4
File size                   : 4.24 GiB
Duration                    : 1 h 42 min
Overall bit rate mode       : Variable
Overall bit rate            : 5 916 kb/s
Encoded date                : UTC 2020-04-04 12:24:11
Writing application         : mkvmerge v32.0.0 ('Astral Progressions') 64-bit
Writing library             : libebml v1.3.7 + libmatroska v1.5.0

Video
ID                          : 1
Format                      : AVC
Format/Info                 : Advanced Video Codec
Format profile              : Main@L4
Format settings             : CABAC / 3 Ref Frames
Format settings, CABAC      : Yes
Format settings, Reference  : 3 frames
Codec ID                    : V_MPEG4/ISO/AVC
Duration                    : 1 h 42 min
Bit rate mode               : Variable
Bit rate                    : 5 620 kb/s
Maximum bit rate            : 8 430 kb/s
Width                       : 1 920 pixels
Height                      : 1 080 pixels
Display aspect ratio        : 16:9
Frame rate mode             : Constant
Frame rate                  : 23.976 (24000/1001) FPS
Color space                 : YUV
Chroma subsampling          : 4:2:0
Bit depth                   : 8 bits
Scan type                   : Progressive
Bits/(Pixel*Frame)          : 0.113
Stream size                 : 4.01 GiB (95%)
Writing library             : x264 core 148 r2717 0d2410d
Encoding settings           : cabac=1 / ref=3 / deblock=1:0:0 / analyse=0x1:0x111 / me=umh / subme=10 / psy=1 / psy_rd=1.00:0.00 / mixed_ref=1 / me_range=24 / chroma_me=1 / trellis=2 / 8x8dct=0 / cqm=0 / deadzone=21,11 / fast_pskip=1 / chroma_qp_offset=-2 / threads=6 / lookahead_threads=1 / sliced_threads=0 / nr=0 / decimate=1 / interlaced=0 / bluray_compat=0 / stitchable=1 / constrained_intra=0 / bframes=2 / b_pyramid=0 / b_adapt=2 / b_bias=0 / direct=3 / weightb=1 / open_gop=0 / weightp=2 / keyint=250 / keyint_min=23 / scenecut=0 / intra_refresh=0 / rc_lookahead=48 / rc=2pass / mbtree=1 / bitrate=5620 / ratetol=1.0 / qcomp=0.50 / qpmin=6 / qpmax=51 / qpstep=4 / cplxblur=20.0 / qblur=0.5 / vbv_maxrate=8430 / vbv_bufsize=11240 / nal_hrd=vbr / filler=0 / ip_ratio=1.40 / aq=1:1.00
Default                     : Yes
Forced                      : No

Audio
ID                          : 2
Format                      : AC-3
Format/Info                 : Audio Coding 3
Commercial name             : Dolby Digital
Codec ID                    : A_AC3
Duration                    : 1 h 42 min
Bit rate mode               : Constant
Bit rate                    : 320 kb/s
Channel(s)                  : 2 channels
Channel layout              : L R
Sampling rate               : 48.0 kHz
Frame rate                  : 31.250 FPS (1536 SPF)
Compression mode            : Lossy
Stream size                 : 235 MiB (5%)
Service kind                : Complete Main
Default                     : Yes
Forced                      : No



Скриншоты:
[+] Всего файлов в раздаче - 1:
Dragon Quest - Your Story.mkv4.24 GB

Показать еще раздачи по запросу dragon:
2020-05-13 U Солдаты дракона / Dragon Soldiers (2020) WEBRip 720p | LakeFilms 1.90 GB ↑ 40 ↓ 9
2020-05-12 U Солдаты дракона / Dragon Soldiers (2020) WEBRip 1080p | LakeFilms 2.92 GB ↑ 119 ↓ 55
2020-05-12 U Солдаты дракона / Dragon Soldiers (2020) WEBRip | LakeFilms 1.01 GB ↑ 101 ↓ 33
2020-05-12 U Dragon’s Dogma: Dark Arisen [v 1.0.0.18] (2016) PC | RePack от xatab 7.86 GB ↑ 54 ↓ 37
2020-05-06 U Выход жирного дракона / Enter the Fat Dragon / Fei lung gwoh gong (2020) BDRip-AVC | L2 1К2.03 GB ↑ 54 ↓ 10
2020-05-05 U Выход жирного дракона / Enter the Fat Dragon / Fei lung gwoh gong (2020) BDRip-AVC от ExKinoRay | L2 745.13 MB ↑ 113 ↓ 16
2020-05-04 U Выход жирного дракона / Enter the Fat Dragon / Fei lung gwoh gong (2020) BDRip 1080p | L2 8.69 GB ↑ 53 ↓ 28

Отзывы
Зарегистрируйтесь чтобы добавить комментарий.
Обратная связь
Copyleft ©