↑↓torrent.by
Поиск
Логин: Регистрация
Пароль: Восстановить пароль

Тролли. Мировой тур / Trolls World Tour (2020) WEB-DL 1080p | iTunes

Скачать trolli-mirovoy-tur-trolls-world-tour-2020-web-dl-1080p-itunes.torrent
U Магнитная ссылка Размер: 5.72 GB Раздают: 682 Качают: 208 Добавлен: 2020-04-07 07:44:44
Тролли. Мировой тур / Trolls World Tour (2020) WEB-DL 1080p | iTunes

Название: Тролли. Мировой тур
Оригинальное название: Trolls World Tour
Год выпуска: 2020
Жанр:  Мультфильм, мюзикл, фэнтези, комедия, приключения, семейный
Режиссер: Уолт Дорн, Дэвид П. Смит
В ролях: Джастин Тимберлейк, Анна Кендрик, Джеймс Корден, Оззи Осборн, Рэйчел Блум, Андерсон Паак, Джордж Клинтон, Мэри Джей Блайдж, Келли Кларксон, Рон Фанчес

О фильме: Поп-тролли в шоке - оказывается, мир музыки гораздо больше, чем они думали. Рейвы, оупен-эйры, классические концерты и, конечно, хип-хоп баттлы - впереди их ждет головокружительное веселье. Но неудержимая королева Рокс планирует уничтожить все... чтобы миром безоговорочно правил хард-рок! Розочка, Цветан и их новые друзья отправляются в невероятное путешествие: им предстоит объединить всех троллей и помешать Рокс.

Страна: США
Студия: DreamWorks Animation
Продолжительность: 01:30:44
Перевод: Дублированный | iTunes

Файл
Качество: WEB-DL 1080p
Контейнер: MKV
Видео: MPEG-4 AVC, 1920x816, 7999 Kbps, 23.976 fps
Аудио 1: Russian: AC3, 6 ch, 384 kbps, 48.0 KHz - DUB, iTunes
Аудио 2: English: EAC3, 6 ch, 640 kbps, 48.0 KHz - Original
Субтитры: Английские (SDH)

Релиз: by Marchelush


[+] MediaInfo
General
Unique ID : 93260971471450057551681910549068482222 (0x462968E607347F51D083600081AD86AE)
Complete name : Trolls.World.Tour.2020.1080p.AMZN.WEB-DL.Rus.Eng-TEPES_THD.mkv
Format : Matroska
Format version : Version 4
File size : 5.72 GiB
Duration : 1 h 30 min
Overall bit rate : 9 026 kb/s
Movie name : Trolls World Tour (2020) - Release for TeamHD
Encoded date : UTC 2020-04-06 18:45:19
Writing application : mkvmerge v45.0.0 ('Heaven in Pennies') 64-bit
Writing library : libebml v1.3.10 + libmatroska v1.5.2

Video
ID : 1
Format : AVC
Format/Info : Advanced Video Codec
Format profile : High@L4
Format settings : CABAC / 4 Ref Frames
Format settings, CABAC : Yes
Format settings, Reference frames : 4 frames
Codec ID : V_MPEG4/ISO/AVC
Duration : 1 h 30 min
Bit rate mode : Constant
Bit rate : 7 999 kb/s
Nominal bit rate : 10 000 kb/s
Width : 1 920 pixels
Height : 816 pixels
Display aspect ratio : 2.35:1
Frame rate mode : Constant
Frame rate : 23.976 (24000/1001) FPS
Color space : YUV
Chroma subsampling : 4:2:0
Bit depth : 8 bits
Scan type : Progressive
Bits/(Pixel*Frame) : 0.213
Stream size : 5.07 GiB (89%)
Default : Yes
Forced : No
Color range : Limited
Color primaries : BT.709
Transfer characteristics : BT.709
Matrix coefficients : BT.709

Audio #1
ID : 2
Format : AC-3
Format/Info : Audio Coding 3
Commercial name : Dolby Digital
Codec ID : A_AC3
Duration : 1 h 30 min
Bit rate mode : Constant
Bit rate : 384 kb/s
Channel(s) : 6 channels
Channel layout : L R C LFE Ls Rs
Sampling rate : 48.0 kHz
Frame rate : 31.250 FPS (1536 SPF)
Compression mode : Lossy
Stream size : 249 MiB (4%)
Title : iTunes
Language : Russian
Service kind : Complete Main
Default : Yes
Forced : No

Audio #2
ID : 3
Format : E-AC-3
Format/Info : Enhanced AC-3
Commercial name : Dolby Digital Plus
Codec ID : A_EAC3
Duration : 1 h 30 min
Bit rate mode : Constant
Bit rate : 640 kb/s
Channel(s) : 6 channels
Channel layout : L R C LFE Ls Rs
Sampling rate : 48.0 kHz
Frame rate : 31.250 FPS (1536 SPF)
Compression mode : Lossy
Stream size : 415 MiB (7%)
Language : English
Service kind : Complete Main
Default : No
Forced : No

Text
ID : 4
Format : UTF-8
Codec ID : S_TEXT/UTF8
Codec ID/Info : UTF-8 Plain Text
Duration : 1 h 30 min
Bit rate : 93 b/s
Count of elements : 2109
Stream size : 61.5 KiB (0%)
Title : SDH
Language : English
Default : No
Forced : No



Скриншоты:
[+] Всего файлов в раздаче - 1:
Trolls.World.Tour.2020.1080p.AMZN.WEB-DL.Rus.Eng-TEPES_THD.mkv5.72 GB

Похожие раздачи по запросу - тролли:
2020-06-27 U Тролли. Мировой тур / Trolls World Tour (2020) BDRip 1080p от селезень | iTunes 7.41 GB ↑ 196 ↓ 44
2020-04-07 U Тролли. Мировой тур / Trolls World Tour (2020) WEB-DLRip от Dalemake | D 1.46 GB ↑ 823 ↓ 165

Отзывы
Зарегистрируйтесь чтобы добавить комментарий.
Загрузите программу
  uTorrent.exe
Обратная связь
Copyleft ©