↑↓torrent.by
Поиск
Логин: Регистрация
Пароль: Восстановить пароль

Вперёд / Onward (2020) WEB-DL 1080p от селезень | Локализованная версия | iTunes

Скачать vpered-onward-2020-web-dl-1080p-ot-selezen-lokalizovannaya-versiya-itunes.torrent
U Магнитная ссылка Размер: 3.82 GB Раздают: 104 Качают: 24 Добавлен: 2020-04-17 06:32:08
Вперёд / Onward (2020) WEB-DL 1080p от селезень | Локализованная версия | iTunes

Название: Вперёд
Оригинальное название: Onward
Год выхода: 2020
Жанр: Мультфильм, фэнтези, комедия, приключения, семейный, полнометражный
Режиссер: Дэн Скэнлон
В ролях: Том Холланд (II), Крис Прэтт, Джулия Луис-Дрейфус, Джон Ратценбергер, Октавия Спенсер, Мэл Родригес, Лина Уэйте, Али Вонг, Грей ДеЛайл, Трейси Ульман

О фильме: Когда-то давно в сказочном мире царила магия, но после открытия электричества маги стали не нужны, и развитие пошло по техногенному пути. Теперь эльфы, тролли, гоблины, мантикоры, феи, кентавры и единороги летают на самолетах, пользуются автомобилями и мобильниками и ведут в целом прозаичную жизнь. Братья-эльфы Иэн и Барли Лайтфуты воспитывались одной мамой, потому что их отец умер, когда они были ещё совсем маленькими. На 16-летие Иэну достаётся посох отца, и магическое заклинание, которое должно вернуть того к жизни на один день, но волшебный кристалл исчезает, воскресив только нижнюю половину папы. Барли, большой любитель квестов, невероятно рад — прихватив полупапу, братья отправляются в приключение на поиски другого кристалла.

Страна: США
Студия: Walt Disney Pictures, Pixar Animation Studios
Продолжительность: 01:43:09
Перевод: Дублированный | iTunes

Качество: WEB-DL 1080p | Локализованный видеоряд
Видео: MPEG-4 AVC, 1920x804, 4542 Kbit/s, 23.976 fps
Аудио #01: 48 kHz, AC3, 5.1, 384 Kbps | iTunes | RUS |
Аудио #02: 48 kHz, AC3, 5.1, 384 Kbps | Оригинал |  ENG |
Субтитры: Русские (Full), английские

Релиз:


[+] MI
General
Unique ID                   : 63019192028383370307787142379114906380 (0x2F690E0DEABB08ECAFBFB3CB85F8C30C)
Complete name               : E:Video111Onward.2020.WEB-DL.1080p.seleZen.mkv
Format                      : Matroska
Format version              : Version 4
File size                   : 3.82 GiB
Duration                    : 1 h 43 min
Overall bit rate            : 5 308 kb/s
Movie name                  : Onward 2020 from селезень
Encoded date                : UTC 2020-04-16 20:44:55
Writing application         : mkvmerge v40.0.0 ('Old Town Road + Pony') 64-bit
Writing library             : libebml v1.3.9 + libmatroska v1.5.2
Cover                       : Yes
Attachments                 : cover.jpg

Video
ID                          : 1
Format                      : AVC
Format/Info                 : Advanced Video Codec
Format profile              : High@L4
Format settings             : CABAC / 5 Ref Frames
Format settings, CABAC      : Yes
Format settings, Reference  : 5 frames
Codec ID                    : V_MPEG4/ISO/AVC
Duration                    : 1 h 43 min
Bit rate                    : 4 542 kb/s
Width                       : 1 920 pixels
Height                      : 804 pixels
Display aspect ratio        : 2.40:1
Frame rate mode             : Constant
Frame rate                  : 23.976 FPS
Color space                 : YUV
Chroma subsampling          : 4:2:0
Bit depth                   : 8 bits
Scan type                   : Progressive
Bits/(Pixel*Frame)          : 0.123
Stream size                 : 3.27 GiB (86%)
Language                    : English
Default                     : Yes
Forced                      : No
Color range                 : Limited
Color primaries             : BT.709
Transfer characteristics    : BT.709
Matrix coefficients         : BT.709

Audio #1
ID                          : 2
Format                      : AC-3
Format/Info                 : Audio Coding 3
Commercial name             : Dolby Digital
Codec ID                    : A_AC3
Duration                    : 1 h 42 min
Bit rate mode               : Constant
Bit rate                    : 384 kb/s
Channel(s)                  : 6 channels
Channel layout              : L R C LFE Ls Rs
Sampling rate               : 48.0 kHz
Frame rate                  : 31.250 FPS (1536 SPF)
Compression mode            : Lossy
Stream size                 : 281 MiB (7%)
Title                       : iTunes
Language                    : Russian
Service kind                : Complete Main
Default                     : Yes
Forced                      : Yes

Audio #2
ID                          : 3
Format                      : AC-3
Format/Info                 : Audio Coding 3
Commercial name             : Dolby Digital
Codec ID                    : A_AC3
Duration                    : 1 h 42 min
Bit rate mode               : Constant
Bit rate                    : 384 kb/s
Channel(s)                  : 6 channels
Channel layout              : L R C LFE Ls Rs
Sampling rate               : 48.0 kHz
Frame rate                  : 31.250 FPS (1536 SPF)
Compression mode            : Lossy
Stream size                 : 281 MiB (7%)
Title                       : Original
Language                    : English
Service kind                : Complete Main
Default                     : No
Forced                      : No

Text #1
ID                          : 4
Format                      : UTF-8
Codec ID                    : S_TEXT/UTF8
Codec ID/Info               : UTF-8 Plain Text
Duration                    : 1 h 31 min
Bit rate                    : 113 b/s
Count of elements           : 1556
Stream size                 : 76.3 KiB (0%)
Title                       : Full
Language                    : Russian
Default                     : No
Forced                      : No

Text #2
ID                          : 5
Format                      : UTF-8
Codec ID                    : S_TEXT/UTF8
Codec ID/Info               : UTF-8 Plain Text
Duration                    : 1 h 35 min
Bit rate                    : 75 b/s
Count of elements           : 1904
Stream size                 : 53.0 KiB (0%)
Title                       : SDH
Language                    : English
Default                     : No
Forced                      : No

Menu
00:00:00.000                : en:1
00:02:29.357                : en:2
00:07:05.716                : en:3
00:08:13.658                : en:4
00:12:44.345                : en:5
00:14:53.057                : en:6
00:19:20.365                : en:7
00:23:45.380                : en:8
00:25:34.072                : en:9
00:26:10.441                : en:10
00:27:24.765                : en:11
00:30:01.463                : en:12
00:32:48.463                : en:13
00:34:42.952                : en:14
00:36:40.110                : en:15
00:40:41.309                : en:16
00:42:48.060                : en:17
00:44:01.466                : en:18
00:45:40.439                : en:19
00:47:48.483                : en:20
00:52:00.693                : en:21
00:55:11.467                : en:22
00:57:24.349                : en:23
01:02:22.647                : en:24
01:04:02.288                : en:25
01:07:12.394                : en:26
01:08:48.364                : en:27
01:10:05.482                : en:28
01:11:11.589                : en:29
01:13:12.376                : en:30
01:15:58.041                : en:31
01:17:36.347                : en:32
01:20:25.641                : en:33
01:25:00.582                : en:34
01:26:58.908                : en:35
01:30:10.099                : en:36
01:32:49.466                : en:37



Скриншоты:
[+] Всего файлов в раздаче - 1:
Onward.2020.WEB-DL.1080p.seleZen.mkv3.82 GB

Отзывы
Зарегистрируйтесь чтобы добавить комментарий.
Загрузите программу
  uTorrent.exe
Обратная связь
Copyleft ©