↑↓torrent.by
Поиск
Логин: Регистрация
Пароль: Восстановить пароль

Спутник (2020) WEBRip 1080p

Скачать sputnik-2020-webrip-1080p.torrent
U Магнитная ссылка Размер: 4.22 GB Раздают: 610 Качают: 289 Добавлен: 2020-04-23 07:31:26
Спутник (2020) WEBRip 1080p

Название: Спутник
Год выхода: 2020
Жанр: Фантастика, триллер, драма
Страна: Россия
Перевод: Не  требуется
Продолжительность: 01:53:44
Режиссер: Егор Абраменко
В ролях: Оксана Акиньшина, Пётр Фёдоров, Фёдор Бондарчук, Антон Васильев, Павел Устинов и др.

О фильме: СССР, 1983 год. На землю возвращается космический аппарат, но от людей скрывают, что из двух космонавтов живым возвращается только один. Что произошло на борту, остается загадкой, но факты указывают на то, что космонавт столкнулся в полете с новой формой жизни и вернулся на землю не совсем один… Нейрофизиолог Татьяна Климова пытается докопаться до правды и спасти героя, ставшего для нее небезразличным.

Файл
Качество: WEBRip 1080p
Видео: MPEG-4 AVC, 1920x800, 5120 kbps, 24,000 fps
Звук: русский, AC3, 2.0 ch, 48 kHz, 192 kbps
Субтитры: нет

Релиз:


[+] MI
Общее
Уникальный идентификатор                 : 178175377347933855182522978502439898532 (0x860B54576792C725BADA25495D908DA4)
Полное имя                               : G:Torrent2SputnikWebRip1080p.mkv
Формат                                   : Matroska
Версия формата                           : Version 4 / Version 2
Размер файла                             : 4,22 Гбайт
Продолжительность                        : 1 ч. 53 м.
Общий поток                              : 5306 Кбит/сек
Дата кодирования                         : UTC 2020-04-22 22:03:25
Программа кодирования                    : mkvmerge v9.5.0 ('Quiet Fire') 64bit
Библиотека кодирования                   : libebml v1.3.4 + libmatroska v1.4.5

Видео
Идентификатор                            : 1
Формат                                   : AVC
Формат/Информация                        : Advanced Video Codec
Профиль формата                          : High@L4
Настройки формата                        : CABAC / 4 Ref Frames
Параметр CABAC формата                   : Да
Параметр RefFrames формата               : 4 кадра
Идентификатор кодека                     : V_MPEG4/ISO/AVC
Продолжительность                        : 1 ч. 53 м.
Битрейт                                  : 5120 Кбит/сек
Ширина                                   : 1920 пикселей
Высота                                   : 800 пикселей
Соотношение сторон                       : 2,40:1
Режим частоты кадров                     : Постоянный
Частота кадров                           : 24,000 кадра/сек
Цветовое пространство                    : YUV
Субдискретизация насыщенности            : 4:2:0
Битовая глубина                          : 8 бит
Тип развёртки                            : Прогрессивная
Бит/(Пиксели*Кадры)                      : 0.139
Размер потока                            : 4,06 Гбайт (96%)
Библиотека кодирования                   : x264 core 148
Настройки программы                      : cabac=1 / ref=3 / deblock=1:0:0 / analyse=0x3:0x113 / me=hex / subme=7 / psy=1 / psy_rd=1.00:0.00 / mixed_ref=1 / me_range=16 / chroma_me=1 / trellis=1 / 8x8dct=1 / cqm=0 / deadzone=21,11 / fast_pskip=1 / chroma_qp_offset=-2 / threads=25 / lookahead_threads=4 / sliced_threads=0 / nr=0 / decimate=1 / interlaced=0 / bluray_compat=0 / constrained_intra=0 / bframes=6 / b_pyramid=2 / b_adapt=1 / b_bias=0 / direct=1 / weightb=1 / open_gop=0 / weightp=2 / keyint=48 / keyint_min=25 / scenecut=0 / intra_refresh=0 / rc_lookahead=40 / rc=2pass / mbtree=1 / bitrate=5120 / ratetol=1.0 / qcomp=0.60 / qpmin=0 / qpmax=69 / qpstep=4 / cplxblur=20.0 / qblur=0.5 / vbv_maxrate=7680 / vbv_bufsize=20480 / nal_hrd=none / filler=0 / ip_ratio=1.40 / aq=1:1.00
Язык                                     : Russian
Default                                  : Да
Forced                                   : Нет

Аудио
Идентификатор                            : 2
Формат                                   : AC-3
Формат/Информация                        : Audio Coding 3
Параметр Endianness формата              : Big
Идентификатор кодека                     : A_AC3
Продолжительность                        : 1 ч. 53 м.
Вид битрейта                             : Постоянный
Битрейт                                  : 192 Кбит/сек
Каналы                                   : 2 канала
Расположение каналов                     : Front: L R
Частота                                  : 48,0 КГц
Частота кадров                           : 31,250 кадров/сек (1536 SPF)
Битовая глубина                          : 16 бит
Метод сжатия                             : С потерями
Размер потока                            : 156 Мбайт (4%)
Заголовок                                : rus
Язык                                     : Russian
Default                                  : Да
Forced                                   : Нет




Скриншоты:
[+] Всего файлов в раздаче - 1:
SputnikWebRip1080p.mkv4.22 GB

Показать еще раздачи по запросу спутник:
2020-06-20 U Спутник (2020) WEB-DLRip-AVC от Scarabey | iTunes 2.16 GB ↑ 67 ↓ 9
2020-05-31 U Спутник (2020) WEB-DLRip от Scarabey | iTunes 1.49 GB ↑ 57 ↓ 18
2020-05-25 U Спутник (2020) WEB-DLRip | iTunes 744.92 MB ↑ 37 ↓ 13
2020-05-25 U Спутник (2020) WEB-DLRip от MegaPeer | iTunes 1.44 GB ↑ 102 ↓ 26
2020-05-24 U Спутник (2020) WEB-DL 1080p | iTunes 3.96 GB ↑ 119 ↓ 87
2020-04-25 U Спутник (2020) WEB-DLRip от Scarabey 1.47 GB ↑ 192 ↓ 34
2020-04-24 U Спутник (2020) WEB-DLRip 748.04 MB ↑ 127 ↓ 24

Отзывы
Зарегистрируйтесь чтобы добавить комментарий.
Загрузите программу
  uTorrent.exe
Обратная связь
Copyleft ©