↑↓torrent.by
Поиск
Логин: Регистрация
Пароль: Восстановить пароль

Спутник (2020) WEB-DLRip-AVC от Files-х

Скачать sputnik-2020-web-dlrip-avc-ot-files-h.torrent
U Магнитная ссылка Размер: 1.46 GB Раздают: 280 Качают: 63 Добавлен: 2020-04-24 08:03:26
Спутник (2020) WEB-DLRip-AVC от Files-х

Название: Спутник
Год выхода: 2020
Жанр: Фантастика, триллер, драма
Режиссер: Егор Абраменко
В ролях: Оксана Акиньшина, Пётр Фёдоров, Фёдор Бондарчук, Антон Васильев, Павел Устинов и др.

О фильме: СССР, 1983 год. На землю возвращается космический аппарат, но от людей скрывают, что из двух космонавтов живым возвращается только один. Что произошло на борту, остается загадкой, но факты указывают на то, что космонавт столкнулся в полете с новой формой жизни и вернулся на землю не совсем один… Нейрофизиолог Татьяна Климова пытается докопаться до правды и спасти героя, ставшего для нее небезразличным.

Страна: Россия
Студия: Art Pictures Studio, «Водород», Hype Film
Продолжительность: 01:53:44

Файл
Кодек: h.264
Качество: WEB-DLRip-AVC
Видео: MPEG-4 AVC, ~ 1640 Кбит/с, 1024x424, 24 кадр/с
Аудио: AC3, 2 ch, 192 Кбит/с
Язык: Русский

БЕЗ РЕКЛАМЫ!

Релиз:


[+] Инфо-файл

General
Unique ID                                : 199937419722098746537145763018026252539 (0x966A8BDE8D6D6FFBA82DDE54DFDBF8FB)
Complete name                            : F:Sputnik.(2020).WEB-DLRip.(AVC).by.Серый1779.Files-x.mkv
Format                                   : Matroska
Format version                           : Version 2
File size                                : 1.46 GiB
Duration                                 : 1 h 53 min
Overall bit rate                         : 1 834 kb/s
Encoded date                             : UTC 2020-04-23 08:33:41
Writing application                      : mkvmerge v7.8.0 ('River Man') 32bit built on Apr  3 2015 12:11:22
Writing library                          : libebml v1.3.1 + libmatroska v1.4.2

Video
ID                                       : 1
Format                                   : AVC
Format/Info                              : Advanced Video Codec
Format profile                           : High@L4.1
Format settings                          : CABAC / 10 Ref Frames
Format settings, CABAC                   : Yes
Format settings, RefFrames               : 10 frames
Codec ID                                 : V_MPEG4/ISO/AVC
Duration                                 : 1 h 53 min
Bit rate                                 : 1 640 kb/s
Width                                    : 1 024 pixels
Height                                   : 424 pixels
Display aspect ratio                     : 2.40:1
Frame rate mode                          : Constant
Frame rate                               : 24.000 FPS
Color space                              : YUV
Chroma subsampling                       : 4:2:0
Bit depth                                : 8 bits
Scan type                                : Progressive
Bits/(Pixel*Frame)                       : 0.157
Stream size                              : 1.28 GiB (88%)
Writing library                          : x264 core 146 r2538 121396c
Encoding settings                        : cabac=1 / ref=10 / deblock=1:-2:-1 / analyse=0x3:0x133 / me=umh / subme=11 / psy=1 / psy_rd=1.00:0.08 / mixed_ref=1 / me_range=32 / chroma_me=1 / trellis=2 / 8x8dct=1 / cqm=0 / deadzone=21,11 / fast_pskip=0 / chroma_qp_offset=-3 / threads=18 / lookahead_threads=3 / sliced_threads=0 / nr=0 / decimate=1 / interlaced=0 / bluray_compat=0 / constrained_intra=0 / bframes=11 / b_pyramid=2 / b_adapt=2 / b_bias=0 / direct=1 / weightb=1 / open_gop=0 / weightp=2 / keyint=250 / keyint_min=23 / scenecut=40 / intra_refresh=0 / rc=2pass / mbtree=0 / bitrate=1640 / ratetol=1.0 / qcomp=0.60 / qpmin=0 / qpmax=69 / qpstep=4 / cplxblur=20.0 / qblur=0.5 / ip_ratio=1.40 / pb_ratio=1.30 / aq=2:1.00
Default                                  : Yes
Forced                                   : No
Color range                              : Limited
Color primaries                          : BT.709
Transfer characteristics                 : BT.709
Matrix coefficients                      : BT.709

Audio
ID                                       : 2
Format                                   : AC-3
Format/Info                              : Audio Coding 3
Format settings, Endianness              : Big
Codec ID                                 : A_AC3
Duration                                 : 1 h 53 min
Bit rate mode                            : Constant
Bit rate                                 : 192 kb/s
Channel(s)                               : 2 channels
Channel positions                        : Front: L R
Sampling rate                            : 48.0 kHz
Frame rate                               : 31.250 FPS (1536 SPF)
Bit depth                                : 16 bits
Compression mode                         : Lossy
Stream size                              : 156 MiB (10%)
Service kind                             : Complete Main
Default                                  : Yes
Forced                                   : No




Скриншоты:
[+] Всего файлов в раздаче - 1:
Sputnik.(2020).WEB-DLRip.(AVC).by.Серый1779.Files-x.mkv1.46 GB

Показать еще раздачи по запросу спутник:
2020-06-20 U Спутник (2020) WEB-DLRip-AVC от Scarabey | iTunes 2.16 GB ↑ 67 ↓ 9
2020-05-31 U Спутник (2020) WEB-DLRip от Scarabey | iTunes 1.49 GB ↑ 57 ↓ 18
2020-05-25 U Спутник (2020) WEB-DLRip | iTunes 744.92 MB ↑ 37 ↓ 13
2020-05-25 U Спутник (2020) WEB-DLRip от MegaPeer | iTunes 1.44 GB ↑ 102 ↓ 26
2020-05-24 U Спутник (2020) WEB-DL 1080p | iTunes 3.96 GB ↑ 119 ↓ 87
2020-04-25 U Спутник (2020) WEB-DLRip от Scarabey 1.47 GB ↑ 192 ↓ 34
2020-04-24 U Спутник (2020) WEB-DLRip 748.04 MB ↑ 127 ↓ 24

Отзывы
Зарегистрируйтесь чтобы добавить комментарий.
Загрузите программу
  uTorrent.exe
Обратная связь
Copyleft ©