↑↓torrent.by
Поиск
Логин: Регистрация
Пароль: Восстановить пароль

Спутник (2020) WEB-DLRip

Скачать sputnik-2020-web-dlrip.torrent
U Магнитная ссылка Размер: 748.04 MB Раздают: 127 Качают: 24 Добавлен: 2020-04-24 08:03:37
Спутник (2020) WEB-DLRip

Название: Спутник
Год выхода: 2020
Жанр: Фантастика, триллер, драма
Режиссер: Егор Абраменко
В ролях: Оксана Акиньшина, Пётр Фёдоров, Фёдор Бондарчук, Антон Васильев, Павел Устинов и др.

О фильме: СССР, 1983 год. На землю возвращается космический аппарат, но от людей скрывают, что из двух космонавтов живым возвращается только один. Что произошло на борту, остается загадкой, но факты указывают на то, что космонавт столкнулся в полете с новой формой жизни и вернулся на землю не совсем один… Нейрофизиолог Татьяна Климова пытается докопаться до правды и спасти героя, ставшего для нее небезразличным.

Страна: Россия
Студия: Кинокомпания «Водород», Национальная Медиа Группа (НМГ), Art Pictures Studio, Hype Film, Sony Pictures, Канал СТС
Продолжительность: 01:53:44
Перевод: Не требуется

Файл
Качество: WEB-DLRip
Формат: AVI
Видео: 688x288 (2.39:1), 25 fps, XviD build 73 ~781 kbps avg, 0.16 bit/pixel
Аудио: 48 kHz, MPEG Layer 3, 2 ch, ~128.00 kbps avg
Субтитры: Отсутствуют

БЕЗ РЕКЛАМЫ!


[+] Инфо-файл
Общее
Полное имя                               : C:Sputnik.2020.WEB-DLRip740.mb.avi
Формат                                   : AVI
Формат/Информация                        : Audio Video Interleave
Размер файла                             : 748 Мбайт
Продолжительность                        : 1 ч. 53 м.
Общий поток                              : 920 Кбит/сек
Программа кодирования                    : VirtualDubMod 1.5.10.3 | (build 2550/release)
Библиотека кодирования                   : VirtualDubMod build 2550/release

Видео
Идентификатор                            : 0
Формат                                   : MPEG-4 Visual
Профиль формата                          : Advanced Simple@L5
Параметр BVOP формата                    : 1
Параметр QPel формата                    : Нет
Параметр GMC формата                     : Без точки перехода
Параметр матрицы формата                 : Выборочная
Идентификатор кодека                     : XVID
Идентификатор кодека/Подсказка           : XviD
Продолжительность                        : 1 ч. 53 м.
Битрейт                                  : 782 Кбит/сек
Ширина                                   : 688 пикселей
Высота                                   : 288 пикселей
Соотношение сторон                       : 2,40:1
Частота кадров                           : 25,000 кадров/сек
Цветовое пространство                    : YUV
Субдискретизация насыщенности            : 4:2:0
Битовая глубина                          : 8 бит
Тип развёртки                            : Прогрессивная
Метод сжатия                             : С потерями
Бит/(Пиксели*Кадры)                      : 0.158
Размер потока                            : 636 Мбайт (85%)
Библиотека кодирования                   : XviD 73

Аудио
Идентификатор                            : 1
Формат                                   : MPEG Audio
Версия формата                           : Version 1
Профиль формата                          : Layer 3
Идентификатор кодека                     : 55
Идентификатор кодека/Подсказка           : MP3
Продолжительность                        : 1 ч. 53 м.
Вид битрейта                             : Постоянный
Битрейт                                  : 128 Кбит/сек
Каналы                                   : 2 канала
Частота                                  : 48,0 КГц
Метод сжатия                             : С потерями
Размер потока                            : 104 Мбайт (14%)
Выравнивание                             : Соединение по промежуткам
Продолжительность промежутка             : 40  мс. (1,00 видеокадр)
Время предзагрузки промежутка            : 504  мс.
Библиотека кодирования                   : LAME3.99r
Настройки программы                      : -m s -V 4 -q 2 -lowpass 17 -b 128




Скриншоты:
[+] Всего файлов в раздаче - 1:
Sputnik.2020.WEB-DLRip740.mb.avi748.04 MB

Показать еще раздачи по запросу спутник:
2020-06-20 U Спутник (2020) WEB-DLRip-AVC от Scarabey | iTunes 2.16 GB ↑ 67 ↓ 9
2020-05-31 U Спутник (2020) WEB-DLRip от Scarabey | iTunes 1.49 GB ↑ 57 ↓ 18
2020-05-25 U Спутник (2020) WEB-DLRip | iTunes 744.92 MB ↑ 37 ↓ 13
2020-05-25 U Спутник (2020) WEB-DLRip от MegaPeer | iTunes 1.44 GB ↑ 102 ↓ 26
2020-05-24 U Спутник (2020) WEB-DL 1080p | iTunes 3.96 GB ↑ 119 ↓ 87
2020-04-25 U Спутник (2020) WEB-DLRip от Scarabey 1.47 GB ↑ 187 ↓ 34
2020-04-24 U Спутник (2020) WEB-DLRip-AVC от Files-х 1.46 GB ↑ 280 ↓ 63

Отзывы
Зарегистрируйтесь чтобы добавить комментарий.
Загрузите программу
  uTorrent.exe
Обратная связь
Copyleft ©