↑↓torrent.by
Поиск
Логин: Регистрация
Пароль: Восстановить пароль

Чёрное море [01-05 из 08] (2020) WEBRip от GeneralFilm

Скачать chernoe-more-01-05-iz-08-2020-webrip-ot-generalfilm.torrent
U Магнитная ссылка Размер: 2.72 GB Раздают: 205 Качают: 24 Добавлен: 2020-05-01 07:11:43
Чёрное море [01-05 из 08] (2020) WEBRip от GeneralFilm

Оригинальное название: Чёрное море
Год выпуска: 2020
Жанр:  Боевик, приключения, шпионский фильм
Выпущено: Россия, «Star Media»
Режиссер: Сергей Щербин
В ролях: Павел Трубинер, Екатерина Вилкова, Юрий Цурило, Евгений Миллер, Алексей Шевченков, Анна Котова-Дерябина, Константин Адаев, Андрей Руденский, Виктор Проскурин, Сослан Фидаров, Максим Литовченко, Александр Кузьмин (II), Денис Константинов, Елена Митюкова (Степанян), Георгий Анохин, Анастасия Чепелюк, Иван Рысин

О фильме: 1944 год. Незадолго до начала Kрымской наступательной операции кораблям Черноморского флота и Азовской флотилии угрожает серьёзная опасность. Немецкие диверсанты-подводники готовят крупномасштабную акцию по уничтожению основных боевых единиц флота. В Новороссийск приезжает капитан второго ранга Сергей Сабуров. Он призван усилить местную группу контрразведчиков по борьбе с подводными диверсантами под предводительством агента Кунца. Сабурову поручено выйти на Кунца и уничтожить школу по подготовке диверсантов-подводников.

Качество: WEBRip
Видео: XviD build 73, 720x352 (2.045), 25.000 fps, ~ 1300 Kbps (~ 0.200 bit/pixel)
Аудио: 48.0 kHz, MP3, 2/0 ch, 192 kbps
Продолжительность: 5 x ~ 00:52:00
Перевод: Не требуется [Русский]
Cубтитры: нет

Релиз:


[+] MediaInfo
General
Complete name               : D:RazdachiChernoe.More.2020.WEBRip.GeneralFilmE01.Chernoe.More.avi
Format                      : AVI
Format/Info                 : Audio Video Interleave
File size                   : 557 MiB
Duration                    : 51 min 20 s
Overall bit rate            : 1 518 kb/s
Writing application         : VirtualDubMod 1.5.10.3 | www.virtualdub-fr.org || (build 2550/release)
Writing library             : VirtualDubMod build 2550/release

Video
ID                          : 0
Format                      : MPEG-4 Visual
Format profile              : Advanced Simple@L5
Format settings             : BVOP1 / Custom Matrix
Format settings, BVOP       : 1
Format settings, QPel       : No
Format settings, GMC        : No warppoints
Format settings, Matrix     : Custom
Codec ID                    : XVID
Codec ID/Hint               : XviD
Duration                    : 51 min 20 s
Bit rate                    : 1 316 kb/s
Width                       : 720 pixels
Height                      : 352 pixels
Display aspect ratio        : 2.045
Frame rate                  : 25.000 FPS
Color space                 : YUV
Chroma subsampling          : 4:2:0
Bit depth                   : 8 bits
Scan type                   : Progressive
Compression mode            : Lossy
Bits/(Pixel*Frame)          : 0.208
Stream size                 : 483 MiB (87%)
Writing library             : XviD 73

Audio
ID                          : 1
Format                      : MPEG Audio
Format version              : Version 1
Format profile              : Layer 3
Codec ID                    : 55
Codec ID/Hint               : MP3
Duration                    : 51 min 20 s
Bit rate mode               : Constant
Bit rate                    : 192 kb/s
Channel(s)                  : 2 channels
Sampling rate               : 48.0 kHz
Frame rate                  : 41.667 FPS (1152 SPF)
Compression mode            : Lossy
Stream size                 : 70.5 MiB (13%)
Alignment                   : Aligned on interleaves
Interleave, duration        : 40  ms (1.00 video frame)
Interleave, preload duratio : 504  ms
Writing library             : LAME3.99r
Encoding settings           : -m s -V 4 -q 2 -lowpass 18.6 -b 192



Скриншоты:
[+] Всего файлов в раздаче - 5:
E01.Chernoe.More.avi557.24 MB
E02.Chernoe.More.avi557.55 MB
E03.Chernoe.More.avi557.60 MB
E04.Chernoe.More.avi556.88 MB
E05.Chernoe.More.avi557.39 MB

Отзывы
Зарегистрируйтесь чтобы добавить комментарий.
Загрузите программу
  uTorrent.exe
Обратная связь
Copyleft ©