↑↓torrent.by
Поиск
Логин: Регистрация
Пароль: Восстановить пароль

Убийства по открыткам / The Postcard Killings (2020) WEB-DLRip-AVC | A

Скачать ubiystva-po-otkrytkam-the-postcard-killings-2020-web-dlrip-avc-a.torrent
U Магнитная ссылка Размер: 743.42 MB Раздают: 99 Качают: 30 Добавлен: 2020-05-04 07:25:19
Убийства по открыткам / The Postcard Killings (2020) WEB-DLRip-AVC | A

Название: Убийства по открыткам
Оригинальное название: The Postcard Killings
Год выхода: 2020
Жанр:  Детектив, криминал, драма
Режиссер: Данис Танович
В ролях: Джеффри Дин Морган, Фамке Янссен, Каш Джамбо, Йоахим Круль, Стивен Макинтош, Наоми Баттрик, Руаири О’Коннор, Эва Рёзе, Лукас Лугрэн, Дэнис О’Хэр

О фильме:
Лондон, Мадрид, Стокгольм… В Европе орудует жестокий и изощрённый маньяк-убийца. Перемещаясь из города в город, он дразнит полицию, посылая журналистам подсказки в виде открыток из музеев. Одной из его жертв становится дочь опытного и харизматичного детектива из Нью-Йорка, Джейкоба Кэнона. Теперь его цель — найти убийцу и отомстить.

Страна: Великобритания, США
Студия: Good Films Collective, K. JAM Media
Продолжительность: 01:44:17
Перевод: Авторский одноголосый | zamez (без рекламы и мата!)
Субтитры: Нет

Файл
Формат: Matroska
Качество: WEB-DLRip-AVC
Видео: 720x302 at 23.976 fps, x264, ~934 kbps, 0.179 bpp
Аудио: AAC, 2 ch, ~64 kbps - | Русский | -

***Релиз от: -=DoMiNo=-


[+] M/I
x264 [info]: frame I:982   Avg QP:15.64  size: 34989
x264 [info]: frame P:32068 Avg QP:18.93  size: 10630
x264 [info]: frame B:116975 Avg QP:20.36  size:  3016

General
Format                      : Matroska
Format version              : Version 4
File size                   : 743 MiB
Duration                    : 1 h 44 min
Overall bit rate            : 997 kb/s
Movie name                  : Убийства по открыткам.(2020).WEB-DLRip-AVC.[-=DoMiNo=-]
Encoded date                : UTC 2020-05-03 14:19:58
Writing application         : mkvmerge v46.0.0 ('No Deeper Escape') 64-bit
Writing library             : libebml v1.3.10 + libmatroska v1.5.2
Cover                       : Yes
Attachments                 : cover.jpg

Video
ID                          : 1
Format                      : AVC
Format/Info                 : Advanced Video Codec
Format profile              : High@L4.1
Format settings             : CABAC / 12 Ref Frames
Format settings, CABAC      : Yes
Format settings, Reference  : 12 frames
Codec ID                    : V_MPEG4/ISO/AVC
Duration                    : 1 h 44 min
Bit rate                    : 934 kb/s
Width                       : 720 pixels
Height                      : 302 pixels
Display aspect ratio        : 2.40:1
Frame rate mode             : Constant
Frame rate                  : 23.976 (24000/1001) FPS
Color space                 : YUV
Chroma subsampling          : 4:2:0
Bit depth                   : 8 bits
Scan type                   : Progressive
Bits/(Pixel*Frame)          : 0.179
Stream size                 : 694 MiB (93%)
Title                       : RIP_BY_-=DoMiNo=-
Writing library             : x264 core 160 r3000 33f9e14
Encoding settings           : cabac=1 / ref=12 / deblock=1:-2:-2 / analyse=0x3:0x133 / me=umh / subme=10 / psy=1 / psy_rd=1.00:0.00 / mixed_ref=1 / me_range=32 / chroma_me=1 / trellis=2 / 8x8dct=1 / cqm=0 / deadzone=21,11 / fast_pskip=0 / chroma_qp_offset=-2 / threads=6 / lookahead_threads=1 / sliced_threads=0 / nr=0 / decimate=0 / interlaced=0 / bluray_compat=0 / constrained_intra=0 / bframes=12 / b_pyramid=2 / b_adapt=2 / b_bias=0 / direct=3 / weightb=1 / open_gop=0 / weightp=2 / keyint=250 / keyint_min=23 / scenecut=40 / intra_refresh=0 / rc_lookahead=60 / rc=2pass / mbtree=0 / bitrate=934 / ratetol=1.0 / qcomp=0.60 / qpmin=0 / qpmax=69 / qpstep=4 / cplxblur=20.0 / qblur=0.5 / vbv_maxrate=50000 / vbv_bufsize=62500 / nal_hrd=none / filler=0 / ip_ratio=1.40 / pb_ratio=1.30 / aq=3:0.80
Language                    : English
Default                     : Yes
Forced                      : No
Color range                 : Limited
Color primaries             : BT.709
Transfer characteristics    : BT.709
Matrix coefficients         : BT.709

Audio
ID                          : 2
Format                      : AAC LC SBR
Format/Info                 : Advanced Audio Codec Low Complexity with Spectral Band Replication
Commercial name             : HE-AAC
Format settings             : Implicit
Codec ID                    : A_AAC-2
Duration                    : 1 h 44 min
Bit rate                    : 64.0 kb/s
Channel(s)                  : 2 channels
Channel layout              : L R
Sampling rate               : 48.0 kHz
Frame rate                  : 23.438 FPS (2048 SPF)
Compression mode            : Lossy
Stream size                 : 47.7 MiB (6%)
Title                       : AVO_[zamez]
Language                    : Russian
Default                     : Yes
Forced                      : No

Menu
00:00:00.000                : :Глава 01
00:05:30.000                : :Глава 02
00:11:00.000                : :Глава 03
00:16:30.000                : :Глава 04
00:22:00.000                : :Глава 05
00:27:30.000                : :Глава 06
00:33:00.000                : :Глава 07
00:38:30.000                : :Глава 08
00:44:00.000                : :Глава 09
00:49:30.000                : :Глава 10
00:55:00.000                : :Глава 11
01:00:30.000                : :Глава 12
01:06:00.000                : :Глава 13
01:11:30.000                : :Глава 14
01:17:00.000                : :Глава 15
01:22:30.000                : :Глава 16
01:28:00.000                : :Глава 17
01:33:30.000                : :Глава 18
01:39:00.000                : :Глава 19



Скриншоты:
[+] Всего файлов в раздаче - 1:
Убийства по открыткам.(2020).WEB-DLRip-AVC.[-=DoMiNo=-].mkv743.42 MB

Показать еще раздачи по запросу убийства:
2020-06-07 U Убийства в Лотарингии / Meurtres en Lorraine / Убийства в... (2019) HDTVRip-AVC | ViruseProject 1.59 GB ↑ 162 ↓ 59
2020-06-06 U Убийства по открыткам / The Postcard Killings (2020) BDRip 1080p от селезень | iTunes 10.86 GB ↑ 243 ↓ 147
2020-06-05 U Убийства по открыткам / The Postcard Killings (2020) BDRip-AVC от ExKinoRay | iTunes 2.29 GB ↑ 169 ↓ 34
2020-06-05 U Убийства по открыткам / The Postcard Killings (2020) BDRip-AVC | iTunes 1.41 GB ↑ 125 ↓ 43
2020-06-05 U Убийства по открыткам / The Postcard Killings (2020) BDRip от MegaPeer | iTunes 1.46 GB ↑ 113 ↓ 43
2020-05-18 U Убийства по открыткам / The Postcard Killings (2020) BDRip | A 1.46 GB ↑ 111 ↓ 39
2020-05-07 U Убийства по открыткам / The Postcard Killings (2020) WEB-DLRip от MegaPeer | A 1.46 GB ↑ 141 ↓ 33

Отзывы
Зарегистрируйтесь чтобы добавить комментарий.
Загрузите программу
  uTorrent.exe
Обратная связь
Copyleft ©