↑↓torrent.by
Поиск
Логин: Регистрация
Пароль: Восстановить пароль

Чужие дети [01-04 из 04] (2020) WEBRip от GeneralFilm

Скачать chuzhie-deti-01-04-iz-2020-webrip-ot-generalfilm.torrent
U Магнитная ссылка Размер: 2.18 GB Раздают: 49 Качают: 30 Добавлен: 2020-05-04 07:25:52
Чужие дети [01-04 из 04] (2020) WEBRip от GeneralFilm

Оригинальное название: Чужие дети
Год выпуска: 2020
Жанр:  Мелодрама
Выпущено: Украина, Компания "Киевтелефильм"
Режиссер: Конисевич Виктор
В ролях: Алина Кизиярова-Ланина, Евгений Воловенко, Елена Великанова, Александр Пашков, Марина Волкова

О фильме: В семье Дарьи все хорошо: любимый человек, сын, новые планы. Но внезапно ее муж ввязывается в аферу в надежде получить быстрый заработок. И это приводит к полному разорению, теперь в семье висят непомерные долги. Подруга Дарьи, Маша, предлагает легкий путь получения денег... В семье Бориса тоже проблемы: его жена-актриса не может забеременеть. Маша уговаривает жену Бориса взять суррогатную мать, а точнее сразу двух матерей - вдруг у одной не получится. Но беременеют сразу обе...

Качество: WEBRip
Видео: XviD build 73, 720x400 (16:9), 25.000 fps, ~ 1300 Kbps (~ 0.180 bit/pixel)
Аудио: 48.0 kHz, MP3, 2/0 ch, 192 kbps
Продолжительность: 4 x ~ 00:52:00
Перевод: Не требуется [Русский]
Cубтитры: нет

Релиз:
[+] MediaInfo
General
Complete name               : D:RazdachiChuzhie.Deti.2020.WEBRip.GeneralFilmE01.Chuzhie.Deti.avi
Format                      : AVI
Format/Info                 : Audio Video Interleave
File size                   : 557 MiB
Duration                    : 52 min 12 s
Overall bit rate            : 1 493 kb/s
Writing application         : VirtualDubMod 1.5.10.3 | www.virtualdub-fr.org || (build 2550/release)
Writing library             : VirtualDubMod build 2550/release

Video
ID                          : 0
Format                      : MPEG-4 Visual
Format profile              : Advanced Simple@L5
Format settings             : BVOP1 / Custom Matrix
Format settings, BVOP       : 1
Format settings, QPel       : No
Format settings, GMC        : No warppoints
Format settings, Matrix     : Custom
Codec ID                    : XVID
Codec ID/Hint               : XviD
Duration                    : 52 min 12 s
Bit rate                    : 1 291 kb/s
Width                       : 720 pixels
Height                      : 400 pixels
Display aspect ratio        : 16:9
Frame rate                  : 25.000 FPS
Color space                 : YUV
Chroma subsampling          : 4:2:0
Bit depth                   : 8 bits
Scan type                   : Progressive
Compression mode            : Lossy
Bits/(Pixel*Frame)          : 0.179
Stream size                 : 482 MiB (86%)
Writing library             : XviD 73

Audio
ID                          : 1
Format                      : MPEG Audio
Format version              : Version 1
Format profile              : Layer 3
Codec ID                    : 55
Codec ID/Hint               : MP3
Duration                    : 52 min 12 s
Bit rate mode               : Constant
Bit rate                    : 192 kb/s
Channel(s)                  : 2 channels
Sampling rate               : 48.0 kHz
Frame rate                  : 41.667 FPS (1152 SPF)
Compression mode            : Lossy
Stream size                 : 71.7 MiB (13%)
Alignment                   : Aligned on interleaves
Interleave, duration        : 40  ms (1.00 video frame)
Interleave, preload duratio : 504  ms
Writing library             : LAME3.99r
Encoding settings           : -m s -V 4 -q 2 -lowpass 18.6 -b 192



Скриншоты:
[+] Всего файлов в раздаче - 4:
E01.Chuzhie.Deti.avi557.46 MB
E02.Chuzhie.Deti.avi557.84 MB
E03.Chuzhie.Deti.avi557.37 MB
E04.Chuzhie.Deti.avi557.57 MB

Похожие раздачи по запросу - чужие:
2020-06-14 U Чужие / Ужас из песка / The Dustwalker (2019) HDRip от Portablius | iTunes 745.07 MB ↑ 64 ↓ 21
2020-06-14 U Чужие / Ужас из песка / The Dustwalker (2019) BDRemux 1080p | iTunes 22.06 GB ↑ 37 ↓ 30
2020-06-13 U Чужие / Ужас из песка / The Dustwalker (2019) BDRip 1080p | iTunes 10.58 GB ↑ 230 ↓ 191
2020-06-13 U Чужие / Ужас из песка / The Dustwalker (2019) BDRip от MegaPeer | iTunes 1.46 GB ↑ 183 ↓ 46

Отзывы
Зарегистрируйтесь чтобы добавить комментарий.
Обратная связь
Copyleft ©