↑↓torrent.by
Поиск
Логин: Регистрация
Пароль: Восстановить пароль

Nat Geo Wild: Кошачьи приемы / Cat Attack-Tics (2019) HDTV 1080i | P1

Скачать nat-geo-wild-koshachi-priemy-cat-attack-tics-2019-hdtv-1080i-p1.torrent
U Магнитная ссылка Размер: 2.25 GB Раздают: 32 Качают: 8 Добавлен: 2020-05-07 05:31:43
Nat Geo Wild: Кошачьи приемы / Cat Attack-Tics (2019) HDTV  1080i | P1

Название: Кошачьи приемы
Оригинальное название: Cat Attack-Tics
Год выхода: 2019
Жанр: Документальный, природа, флора, фауна
Режиссер: Айан Мак-Ги

О фильме:
На Земле 38 видов диких кошек, и они живут и охотятся практически повсеместно. На протяжении миллионов лет они оттачивали свою стратегию нападения на жертву определенного размера. Посмотрите на стратегии охоты диких кошек, которые делают их, возможно, самым смертоносным существом на земле - от леопардов, лазающих по деревьям, ягуаров, способных разгрызть череп своей жертвы, плавающих кошек-рыболовов, до умеющих быстро зарываться в песок песчаных кошек.

Страна: США
Студия: Natural History New Zealand Ltd, Plimsoll Productions
Продолжительность: 00:43:58
Перевод: Профессиональный (одноголосый закадровый) Велес

Файл
Кодек: AVC/H.264
Качество: HDTV  1080i
Видео: 1920x1080 (16:9), 25 fps, AVC (H.264), High@L4, 6635 kbps, 0.128 bit/pixel
Звук:
Русский 48 kHz, MPEG Layer 2, 2 ch, ~192.00 kbps avg
Английский 48 kHz, MPEG Layer 2, 2 ch, ~128.00 kbps avg

Семпл

Релиз от: kyba
[+] MediaInfo
Complete name               : F:НаладкиКошачьи приемы.ts
Format                      : MPEG-TS
File size                   : 2.25 GiB
Duration                    : 43 min 58 s
Overall bit rate mode       : Variable
Overall bit rate            : 7 320 kb/s

Video
ID                          : 308 (0x134)
Menu ID                     : 26008 (0x6598)
Format                      : AVC
Format/Info                 : Advanced Video Codec
Format profile              : High@L4
Format settings             : CABAC / 4 Ref Frames
Format settings, CABAC      : Yes
Format settings, Reference  : 4 frames
Codec ID                    : 27
Duration                    : 43 min 58 s
Bit rate                    : 6 635 kb/s
Width                       : 1 920 pixels
Height                      : 1 080 pixels
Display aspect ratio        : 16:9
Frame rate                  : 25.000 FPS
Standard                    : Component
Color space                 : YUV
Chroma subsampling          : 4:2:0
Bit depth                   : 8 bits
Scan type                   : Interlaced
Scan type, store method     : Separated fields
Scan order                  : Top Field First
Bits/(Pixel*Frame)          : 0.128
Stream size                 : 2.04 GiB (91%)
Color range                 : Limited
Color primaries             : BT.709
Transfer characteristics    : BT.709
Matrix coefficients         : BT.709

Audio #1
ID                          : 408 (0x198)
Menu ID                     : 26008 (0x6598)
Format                      : MPEG Audio
Format version              : Version 1
Format profile              : Layer 2
Codec ID                    : 3
Duration                    : 43 min 58 s
Bit rate mode               : Constant
Bit rate                    : 192 kb/s
Channel(s)                  : 2 channels
Sampling rate               : 48.0 kHz
Frame rate                  : 41.667 FPS (1152 SPF)
Compression mode            : Lossy
Stream size                 : 60.4 MiB (3%)
Language                    : Russian

Audio #2
ID                          : 428 (0x1AC)
Menu ID                     : 26008 (0x6598)
Format                      : MPEG Audio
Format version              : Version 1
Format profile              : Layer 2
Codec ID                    : 3
Duration                    : 43 min 58 s
Bit rate mode               : Constant
Bit rate                    : 128 kb/s
Channel(s)                  : 2 channels
Sampling rate               : 48.0 kHz
Frame rate                  : 41.667 FPS (1152 SPF)
Compression mode            : Lossy
Stream size                 : 40.3 MiB (2%)
Language                    : English

Text
ID                          : 508 (0x1FC)
Menu ID                     : 26008 (0x6598)
Format                      : DVB Subtitle
Codec ID                    : 6
Duration                    : 43 min 56 s
Delay relative to video     : 1 s 500 ms
Language                    : Russian



Скриншоты:
[+] Всего файлов в раздаче - 1:
Кошачьи приемы.ts2.25 GB

Показать еще раздачи по запросу wild:
2020-05-07 U Зов предков / The Call of the Wild (2020) BDRip-HEVC 1080p от HEVC-CLUB | iTunes 3.98 GB ↑ 60 ↓ 18
2020-05-05 U Лабиринты мира 11: Дикий Край / Labyrinths of the World 11: The Wild Side (2020) PC 1.28 GB ↑ 73 ↓ 14
2020-05-05 U Зов предков / The Call of the Wild (2020) BDRip от Twister & ExKinoRay | iTunes 1.42 GB ↑ 83 ↓ 12
2020-05-05 U Зов предков / The Call of the Wild (2020) HDRip от Scarabey | iTunes 1.40 GB ↑ 26 ↓ 9
2020-05-05 U Зов предков / The Call of the Wild (2020) UHD BDRemux 2160p от селезень | 4K | HDR | D, P | iTunes 48.79 GB ↑ 61 ↓ 82
2020-05-05 U Зов предков / The Call of the Wild (2020) BDRip-AVC | D, P, | iTunes 2.85 GB ↑ 141 ↓ 28
2020-05-04 U Зов предков / The Call of the Wild (2020) BDRemux 1080p от селезень | D, P | iTunes 24.50 GB ↑ 124 ↓ 157

Отзывы
Зарегистрируйтесь чтобы добавить комментарий.
Обратная связь
Copyleft ©