↑↓torrent.by
Поиск
Логин: Регистрация
Пароль: Восстановить пароль

Освобождение [01-04 из 04] (2019) DVB от AND03AND

Скачать osvobozhdenie-01-04-iz-2019-dvb-ot-and03and.torrent
U Магнитная ссылка Размер: 1.90 GB Раздают: 40 Качают: 16 Добавлен: 2020-05-09 07:12:14
Освобождение [01-04 из 04] (2019) DVB от AND03AND

Название: Освобождение [01-04 из 04]
Год выхода: 2019
Жанр: документальный
Режиссер: Андрей Лескин

О фильме:
Телеканал "Беларусь 3" представляет 4-серийный художественно-публицистический фильм, посвященный 75-летию освобождения Беларуси от немецко-фашистских захватчиков. Новый цикл "Освобождение" - это результат четырех уникальных расследований. Четыре фильма расскажут о героях войны, имена и подвиги которых ранее были неизвестны.

Война беспощадно стирает не только жизни, но порой даже память о героях. Однако даже сейчас многие имена все же удается установить. Благодаря усилиям неравнодушных потомков поиск продолжается и сегодня, спустя 75 лет после страшных событий Великой Отечественной.

Доп. информация:
Запись потока *.ts с наземного цифрового телеканала "Беларусь 3".

Благодарность: за помощь с недостающим материалом Bartimeyse и  PavelDAS. Обоим большое спасибо!

Страна: Республика Беларусь
Студия: Воен-ТВ Беларусь
Количество серий: 01-04 из 04
Продолжительность серии: 00:26:00
Перевод: Не требует

Файл
Кодек: AVC (H264)
Качество: DVB
Видео: MPEG4 Video (H264) 720x576 (20:11) 25fps, 2 192 kb/s
Звук: MPEG Audio 48000Hz stereo 256kbps

Семпл
[+] детальное описание каждой серии:

"Время вернуться с войны", первый фильм из цикла "Освобождение", поведает историю редкой находки - ордена Александра Невского. Он был обнаружен недалеко от деревни Давыдовичи Калинковичского района Гомельской области весной 2018 года. Съемочная группа проекта участвовала в раскопках вместе с поисковиками. Совместно с Центральным архивом Министерства обороны России и Национальным архивом Беларуси удалось узнать имя владельца награды - им оказался командир минометной роты младший лейтенант Иван Степанович Викторенко. Следующим открытием, которое позволил сделать орден, стал тот факт, что на этом же плацдарме сражался и второй герой фильма - Борис Андреевич Цариков, 17-летний Герой Советского Союза. Но самая большая неожиданность ждала съемочную группу, когда удалось разыскать родственников героев…

Во втором фильме - "Война сбитых летчиков" - речь пойдет о самолете Ил-4, найденном близ деревни Межное Кличевского района Могилевской области. Расследование обстоятельств его крушения на месте падения, поиски в архивах России и Беларуси, свидетельства очевидцев позволили восстановить картину событий осени 1943 года. А также узнать о том, что случилось с двумя уцелевшими членами экипажа - командиром Дмитрием Климаченковым и штурманом Алексеем Гвоздовским.

События третьего фильма - "Голоса сожженных деревень" - также начинаются в современности. Летом 2018 года в администрацию мемориального комплекса "Хатынь" пришел житель деревни Жавалки Копыльского района Минской области. Его деревни, где было уничтожено 512 человек, нет ни на одном из памятников мемориала. Расследование и архивные документы подтвердили: Жавалки действительно должны быть увековечены в "Хатыни". Но почему же их нет? Как оказалось, таких забытых деревень немало. Рассказ в фильме ведется от имени свидетелей тех далеких трагических событий…

Четвертый фильм цикла называется "Дороги побед". В нем авторы шаг за шагом проследили боевой путь четверых участников войны. Они сражались за Родину во время операции "Багратион", прошли всю войну, побывав в самых страшных боях. Их матери получили похоронки, но они все же дошли до Победы и вернулись домой, чтобы строить жизнь без войны. Зрителей ждут реальные истории реальных людей: связистки Марии Ежовой, сапера Василия Николаенко, пулеметчика Петра Берегового и санитарки Ольги Копытько.



[+] Список выпусков/серий

01. Освобождение. Время вернуться с войны (2019).ts
02. Освобождение. Война сбитых лётчиков (2019).ts
03. Освобождение. Голоса сожженных деревень (2019).ts
04. Освобождение. Дороги побед (2019).ts



[+] MediaInfo

General
ID                             : 1 (0x1)
Complete name                  : Z:02 раздачиДокументальные фильмыВОВ и другие войныОсвобождение (2019)Освобождение (2019)1. Освобождение. Время вернуться с войны (2019).ts
Format                         : MPEG-TS
File size                      : 483 MiB
Duration                       : 26 min 11 s
Overall bit rate mode          : Variable
Overall bit rate               : 2 578 kb/s

Video
ID                             : 801 (0x321)
Menu ID                        : 8 (0x8)
Format                         : AVC
Format/Info                    : Advanced Video Codec
Format profile                 : Main@L3
Format settings                : CABAC / 4 Ref Frames
Format settings, CABAC         : Yes
Format settings, ReFrames      : 4 frames
Format settings, GOP           : M=4, N=24
Codec ID                       : 27
Duration                       : 26 min 10 s
Bit rate                       : 2 192 kb/s
Width                          : 720 pixels
Height                         : 576 pixels
Display aspect ratio           : 16:9
Frame rate                     : 25.000 FPS
Standard                       : PAL
Color space                    : YUV
Chroma subsampling             : 4:2:0
Bit depth                      : 8 bits
Scan type                      : MBAFF
Scan type, store method        : Interleaved fields
Scan order                     : Top Field First
Bits/(Pixel*Frame)             : 0.211
Stream size                    : 410 MiB (85%)
Color range                    : Limited
Color primaries                : BT.601 PAL
Transfer characteristics       : BT.470 System B/G
Matrix coefficients            : BT.470 System B/G

Audio
ID                             : 802 (0x322)
Menu ID                        : 8 (0x8)
Format                         : MPEG Audio
Format version                 : Version 1
Format profile                 : Layer 2
Codec ID                       : 3
Duration                       : 26 min 10 s
Bit rate mode                  : Constant
Bit rate                       : 256 kb/s
Channel(s)                     : 2 channels
Sampling rate                  : 48.0 kHz
Frame rate                     : 41.667 FPS (1152 SPF)
Compression mode               : Lossy
Delay relative to video        : -120 ms
Stream size                    : 47.9 MiB (10%)
Language                       : English



Скриншоты:
[+] Всего файлов в раздаче - 4:
01. Освобождение. Время вернуться с войны (2019).ts482.75 MB
02. Освобождение. Война сбитых лётчиков (2019).ts481.39 MB
03. Освобождение. Голоса сожженных деревень (2019).ts492.52 MB
04. Освобождение. Дороги побед (2019).ts492.31 MB

Отзывы
Зарегистрируйтесь чтобы добавить комментарий.
Обратная связь
Copyleft ©