↑↓torrent.by
Поиск
Логин: Регистрация
Пароль: Восстановить пароль

Диверсант. Крым [03х01-04 из 04] (2020) HDTVRip от GeneralFilm

Скачать diversant-krym-03h01-04-iz-2020-hdtvrip-ot-generalfilm.torrent
U Магнитная ссылка Размер: 2.57 GB Раздают: 369 Качают: 215 Добавлен: 2020-05-10 07:07:16
Диверсант. Крым [03х01-04 из 04] (2020) HDTVRip от GeneralFilm

Год выпуска: 2020
Жанр:  Боевик, военный, экранизация, ВОВ
Выпущено: Россия, ООО «Кинокомпания «Дивера Фильм» по заказу АО «Первый Канал»
Режиссер: Дмитрий Иосифов
В ролях: Кирилл Плетнёв, Алексей Бардуков, Сергей Колтаков, Артемий Александров, Ангелина Стречина, Эльдар Калимулин, Джошуа Гротхе, Марина Вайс, Дарья Румянцева, Кристиан Мок, Софья Кускова, Александр Бухаров, Адриан Цвикер, Дирк Мартенс, Андрей Фомин

О фильме: Июль 1942 года. Алексей Бобриков и Леонид Филатов получают приказ о ликвидации попавшего в плен капитана 1-го ранга Ивана Александрова, виновного в сдаче одного из ключевых рубежей обороны Севастополя. Диверсанты отправляются на задание вдвоем. Установив связь с партизанским отрядом, Алексей и Леонид выдвигаются в город. Первая попытка выполнить приказ оканчивается неудачей: при покушении Александров ранен и госпитализирован в тщательно охраняемый немецкий военный санаторий. После второй попытки захватить Александрова Бобриков и Филатов оказываются в немецком плену…

Качество: HDTVRip
Видео: XviD, ~ 1600 Кбит/с, 720x400, 25 кадр/с
Аудио: Русский (AC3, 2 ch, 192 Кбит/с)
Продолжительность: 4 х ~ 00:50:00
Перевод: Не требуется
Субтитры: нет

Релиз:


[+] MediaInfo

Общее
Полное имя                               : D:Diversant. Krym.S03.HDTVRip.GeneralFilm1.Diversant. Krym.S03.HDTVRip.GeneralFilm.avi
Формат                                   : AVI
Формат/Информация                        : Audio Video Interleave
Размер файла                             : 636 Мбайт
Продолжительность                        : 49 м.
Общий поток                              : 1797 Кбит/сек

Видео
Идентификатор                            : 0
Формат                                   : MPEG-4 Visual
Профиль формата                          : Advanced Simple@L5
Параметр BVOP формата                    : 1
Параметр QPel формата                    : Нет
Параметр GMC формата                     : Без точки перехода
Параметр матрицы формата                 : Выборочная
Идентификатор кодека                     : XVID
Идентификатор кодека/Подсказка           : XviD
Продолжительность                        : 49 м.
Битрейт                                  : 1593 Кбит/сек
Ширина                                   : 720 пикселей
Высота                                   : 400 пикселей
Соотношение сторон                       : 16:9
Частота кадров                           : 25,000 кадров/сек
Цветовое пространство                    : YUV
Субдискретизация насыщенности            : 4:2:0
Битовая глубина                          : 8 бит
Тип развёртки                            : Прогрессивная
Метод сжатия                             : С потерями
Бит/(Пиксели*Кадры)                      : 0.221
Размер потока                            : 564 Мбайт (89%)
Библиотека кодирования                   : XviD 1.2.1 (UTC 2008-12-04)

Аудио
Идентификатор                            : 1
Формат                                   : AC-3
Формат/Информация                        : Audio Coding 3
Расширение режима                        : CM (complete main)
Параметр Endianness формата              : Big
Идентификатор кодека                     : 2000
Продолжительность                        : 49 м.
Вид битрейта                             : Постоянный
Битрейт                                  : 192 Кбит/сек
Каналы                                   : 2 канала
Расположение каналов                     : Front: L R
Частота                                  : 48,0 КГц
Битовая глубина                          : 16 бит
Метод сжатия                             : С потерями
Размер потока                            : 67,9 Мбайт (11%)
Выравнивание                             : Соединение по промежуткам
Продолжительность промежутка             : 32  мс. (0,80 видеокадр)

Общее
Полное имя                               : D:Diversant. Krym.S03.HDTVRip.GeneralFilm2.Diversant. Krym.S03.HDTVRip.GeneralFilm.avi
Формат                                   : AVI
Формат/Информация                        : Audio Video Interleave
Размер файла                             : 656 Мбайт
Продолжительность                        : 50 м.
Общий поток                              : 1802 Кбит/сек

Видео
Идентификатор                            : 0
Формат                                   : MPEG-4 Visual
Профиль формата                          : Advanced Simple@L5
Параметр BVOP формата                    : 1
Параметр QPel формата                    : Нет
Параметр GMC формата                     : Без точки перехода
Параметр матрицы формата                 : Выборочная
Идентификатор кодека                     : XVID
Идентификатор кодека/Подсказка           : XviD
Продолжительность                        : 50 м.
Битрейт                                  : 1599 Кбит/сек
Ширина                                   : 720 пикселей
Высота                                   : 400 пикселей
Соотношение сторон                       : 16:9
Частота кадров                           : 25,000 кадров/сек
Цветовое пространство                    : YUV
Субдискретизация насыщенности            : 4:2:0
Битовая глубина                          : 8 бит
Тип развёртки                            : Прогрессивная
Метод сжатия                             : С потерями
Бит/(Пиксели*Кадры)                      : 0.222
Размер потока                            : 582 Мбайт (89%)
Библиотека кодирования                   : XviD 1.2.1 (UTC 2008-12-04)

Аудио
Идентификатор                            : 1
Формат                                   : AC-3
Формат/Информация                        : Audio Coding 3
Расширение режима                        : CM (complete main)
Параметр Endianness формата              : Big
Идентификатор кодека                     : 2000
Продолжительность                        : 50 м.
Вид битрейта                             : Постоянный
Битрейт                                  : 192 Кбит/сек
Каналы                                   : 2 канала
Расположение каналов                     : Front: L R
Частота                                  : 48,0 КГц
Битовая глубина                          : 16 бит
Метод сжатия                             : С потерями
Размер потока                            : 69,9 Мбайт (11%)
Выравнивание                             : Соединение по промежуткам
Продолжительность промежутка             : 32  мс. (0,80 видеокадр)




Скриншоты:
[+] Всего файлов в раздаче - 4:
01.Diversant. Krym.S03.HDTVRip.GeneralFilm.avi635.83 MB
02.Diversant. Krym.S03.HDTVRip.GeneralFilm.avi656.38 MB
03.Diversant. Krym.S03.HDTVRip.GeneralFilm.avi655.87 MB
04.Diversant. Krym.S03HDTVRip.GeneralFilm.avi687.79 MB

Похожие раздачи по запросу - диверсант:
2020-05-11 U Диверсант. Крым [S03] (2020) WEBRip от GeneralFilm 2.18 GB ↑ 86 ↓ 62
2020-05-10 U Диверсант. Крым [S03] (2020) HDTVRip-AVC от Files-x 3.14 GB ↑ 361 ↓ 202
2020-05-10 U Диверсант. Крым [03х01-04 из 04] (2020) HDTVRip 720p от GeneralFilm 5.28 GB ↑ 371 ↓ 250
2020-05-09 U Диверсант. Крым [S03] (2020) SATRip 2.73 GB ↑ 1160 ↓ 962

Отзывы
Зарегистрируйтесь чтобы добавить комментарий.
Загрузите программу
  uTorrent.exe
Обратная связь
Copyleft ©