↑↓torrent.by
Поиск
Логин: Регистрация
Пароль: Восстановить пароль

Диверсант. Крым [03х01-04 из 04] (2020) HDTVRip 720p от GeneralFilm

Скачать diversant-krym-03h01-04-iz-2020-hdtvrip-720p-ot-generalfilm.torrent
U Магнитная ссылка Размер: 5.28 GB Раздают: 371 Качают: 250 Добавлен: 2020-05-10 07:07:19
Диверсант. Крым [03х01-04 из 04] (2020) HDTVRip 720p от GeneralFilm

Год выпуска: 2020
Жанр:  Боевик, военный, экранизация, ВОВ
Выпущено: Россия, ООО «Кинокомпания «Дивера Фильм» по заказу АО «Первый Канал»
Режиссер: Дмитрий Иосифов
В ролях: Кирилл Плетнёв, Алексей Бардуков, Сергей Колтаков, Артемий Александров, Ангелина Стречина, Эльдар Калимулин, Джошуа Гротхе, Марина Вайс, Дарья Румянцева, Кристиан Мок, Софья Кускова, Александр Бухаров, Адриан Цвикер, Дирк Мартенс, Андрей Фомин

О фильме: Июль 1942 года. Алексей Бобриков и Леонид Филатов получают приказ о ликвидации попавшего в плен капитана 1-го ранга Ивана Александрова, виновного в сдаче одного из ключевых рубежей обороны Севастополя. Диверсанты отправляются на задание вдвоем. Установив связь с партизанским отрядом, Алексей и Леонид выдвигаются в город. Первая попытка выполнить приказ оканчивается неудачей: при покушении Александров ранен и госпитализирован в тщательно охраняемый немецкий военный санаторий. После второй попытки захватить Александрова Бобриков и Филатов оказываются в немецком плену…

Качество: HDTVRip (720p)
Видео: MPEG-4 AVC, ~ 3500 Кбит/с, 1280x720, 25 fps
Аудио: Русский (AC3, 2 ch, 192 Кбит/с)
Продолжительность: 4 х ~ 00:50:00
Перевод: Не требуется
Субтитры: нет

Релиз:


[+] MediaInfo

Общее
Уникальный идентификатор                 : 181806903209185500703497451442463912536 (0x88C6BC63DB3F1350BE3E81C9862D3258)
Полное имя                               : D:Diversant. Krym.S03.HDTVRip.(720p).GeneralFilm1.Diversant. Krym.S03.HDTVRip.(720p).GeneralFilm.mkv
Формат                                   : Matroska
Версия формата                           : Version 2
Размер файла                             : 1,28 Гбайт
Продолжительность                        : 49 м.
Общий поток                              : 3694 Кбит/сек
Дата кодирования                         : UTC 2020-05-09 12:43:26
Программа кодирования                    : mkvmerge v7.8.0 ('River Man') 32bit built on Apr  3 2015 12:11:22
Библиотека кодирования                   : libebml v1.3.1 + libmatroska v1.4.2

Видео
Идентификатор                            : 1
Формат                                   : AVC
Формат/Информация                        : Advanced Video Codec
Профиль формата                          : High@L4.1
Параметр CABAC формата                   : Да
Параметр ReFrames формата                : 9 кадров
Идентификатор кодека                     : V_MPEG4/ISO/AVC
Продолжительность                        : 49 м.
Битрейт                                  : 3500 Кбит/сек
Ширина                                   : 1280 пикселей
Высота                                   : 720 пикселей
Соотношение сторон                       : 16:9
Режим частоты кадров                     : Постоянный
Частота кадров                           : 25,000 кадров/сек
Цветовое пространство                    : YUV
Субдискретизация насыщенности            : 4:2:0
Битовая глубина                          : 8 бит
Тип развёртки                            : Прогрессивная
Бит/(Пиксели*Кадры)                      : 0.152
Размер потока                            : 1,18 Гбайт (93%)
Библиотека кодирования                   : x264 core 146 r2538 121396c
Настройки программы                      : cabac=1 / ref=9 / deblock=1:-2:-1 / analyse=0x3:0x133 / me=umh / subme=9 / psy=1 / psy_rd=1.00:0.15 / mixed_ref=1 / me_range=32 / chroma_me=1 / trellis=2 / 8x8dct=1 / cqm=0 / deadzone=21,11 / fast_pskip=0 / chroma_qp_offset=-3 / threads=18 / lookahead_threads=3 / sliced_threads=0 / nr=0 / decimate=1 / interlaced=0 / bluray_compat=0 / constrained_intra=0 / bframes=9 / b_pyramid=2 / b_adapt=2 / b_bias=0 / direct=1 / weightb=1 / open_gop=0 / weightp=2 / keyint=250 / keyint_min=25 / scenecut=40 / intra_refresh=0 / rc=2pass / mbtree=0 / bitrate=3500 / ratetol=1.0 / qcomp=0.60 / qpmin=0 / qpmax=69 / qpstep=4 / cplxblur=20.0 / qblur=0.5 / ip_ratio=1.40 / pb_ratio=1.30 / aq=2:1.00
Default                                  : Да
Forced                                   : Нет
Основные цвета                           : BT.709
Характеристики трансфера                 : BT.709
Коэффициенты матрицы                     : BT.709

Аудио
Идентификатор                            : 2
Формат                                   : AC-3
Формат/Информация                        : Audio Coding 3
Расширение режима                        : CM (complete main)
Параметр Endianness формата              : Big
Идентификатор кодека                     : A_AC3
Продолжительность                        : 49 м.
Вид битрейта                             : Постоянный
Битрейт                                  : 192 Кбит/сек
Каналы                                   : 2 канала
Расположение каналов                     : Front: L R
Частота                                  : 48,0 КГц
Битовая глубина                          : 16 бит
Метод сжатия                             : С потерями
Размер потока                            : 67,9 Мбайт (5%)
Default                                  : Да
Forced                                   : Нет

Общее
Уникальный идентификатор                 : 182196126237803356703009661433447054082 (0x8911B29125BEF02DAFBB199E51BDFB02)
Полное имя                               : D:Diversant. Krym.S03.HDTVRip.(720p).GeneralFilm2.Diversant. Krym.S03.HDTVRip.(720p).GeneralFilm.mkv
Формат                                   : Matroska
Версия формата                           : Version 2
Размер файла                             : 1,31 Гбайт
Продолжительность                        : 50 м.
Общий поток                              : 3694 Кбит/сек
Дата кодирования                         : UTC 2020-05-09 14:48:55
Программа кодирования                    : mkvmerge v7.8.0 ('River Man') 32bit built on Apr  3 2015 12:11:22
Библиотека кодирования                   : libebml v1.3.1 + libmatroska v1.4.2

Видео
Идентификатор                            : 1
Формат                                   : AVC
Формат/Информация                        : Advanced Video Codec
Профиль формата                          : High@L4.1
Параметр CABAC формата                   : Да
Параметр ReFrames формата                : 9 кадров
Идентификатор кодека                     : V_MPEG4/ISO/AVC
Продолжительность                        : 50 м.
Битрейт                                  : 3500 Кбит/сек
Ширина                                   : 1280 пикселей
Высота                                   : 720 пикселей
Соотношение сторон                       : 16:9
Режим частоты кадров                     : Постоянный
Частота кадров                           : 25,000 кадров/сек
Цветовое пространство                    : YUV
Субдискретизация насыщенности            : 4:2:0
Битовая глубина                          : 8 бит
Тип развёртки                            : Прогрессивная
Бит/(Пиксели*Кадры)                      : 0.152
Размер потока                            : 1,22 Гбайт (93%)
Библиотека кодирования                   : x264 core 146 r2538 121396c
Настройки программы                      : cabac=1 / ref=9 / deblock=1:-2:-1 / analyse=0x3:0x133 / me=umh / subme=9 / psy=1 / psy_rd=1.00:0.15 / mixed_ref=1 / me_range=32 / chroma_me=1 / trellis=2 / 8x8dct=1 / cqm=0 / deadzone=21,11 / fast_pskip=0 / chroma_qp_offset=-3 / threads=18 / lookahead_threads=3 / sliced_threads=0 / nr=0 / decimate=1 / interlaced=0 / bluray_compat=0 / constrained_intra=0 / bframes=9 / b_pyramid=2 / b_adapt=2 / b_bias=0 / direct=1 / weightb=1 / open_gop=0 / weightp=2 / keyint=250 / keyint_min=25 / scenecut=40 / intra_refresh=0 / rc=2pass / mbtree=0 / bitrate=3500 / ratetol=1.0 / qcomp=0.60 / qpmin=0 / qpmax=69 / qpstep=4 / cplxblur=20.0 / qblur=0.5 / ip_ratio=1.40 / pb_ratio=1.30 / aq=2:1.00
Default                                  : Да
Forced                                   : Нет
Основные цвета                           : BT.709
Характеристики трансфера                 : BT.709
Коэффициенты матрицы                     : BT.709

Аудио
Идентификатор                            : 2
Формат                                   : AC-3
Формат/Информация                        : Audio Coding 3
Расширение режима                        : CM (complete main)
Параметр Endianness формата              : Big
Идентификатор кодека                     : A_AC3
Продолжительность                        : 50 м.
Вид битрейта                             : Постоянный
Битрейт                                  : 192 Кбит/сек
Каналы                                   : 2 канала
Расположение каналов                     : Front: L R
Частота                                  : 48,0 КГц
Битовая глубина                          : 16 бит
Метод сжатия                             : С потерями
Размер потока                            : 69,9 Мбайт (5%)
Default                                  : Да
Forced                                   : Нет




Скриншоты:
[+] Всего файлов в раздаче - 4:
01.Diversant. Krym.S03.HDTVRip.(720p).GeneralFilm.mkv1.28 GB
02.Diversant. Krym.S03.HDTVRip.(720p).GeneralFilm.mkv1.31 GB
03.Diversant. Krym.S03.HDTVRip.(720p).GeneralFilm.mkv1.31 GB
04.Diversant. Krym.S03.HDTVRip.(720p).GeneralFilm.mkv1.38 GB

Похожие раздачи по запросу - диверсант:
2020-05-11 U Диверсант. Крым [S03] (2020) WEBRip от GeneralFilm 2.18 GB ↑ 86 ↓ 62
2020-05-10 U Диверсант. Крым [S03] (2020) HDTVRip-AVC от Files-x 3.14 GB ↑ 361 ↓ 202
2020-05-10 U Диверсант. Крым [03х01-04 из 04] (2020) HDTVRip от GeneralFilm 2.57 GB ↑ 369 ↓ 215
2020-05-09 U Диверсант. Крым [S03] (2020) SATRip 2.73 GB ↑ 1160 ↓ 962

Отзывы
Зарегистрируйтесь чтобы добавить комментарий.
Загрузите программу
  uTorrent.exe
Обратная связь
Copyleft ©