↑↓torrent.by
Поиск
Логин: Регистрация
Пароль: Восстановить пароль

Диверсант. Крым [S03] (2020) WEBRip от GeneralFilm

Скачать diversant-krym-s03-2020-webrip-ot-generalfilm.torrent
U Магнитная ссылка Размер: 2.18 GB Раздают: 86 Качают: 62 Добавлен: 2020-05-11 13:15:47
Диверсант. Крым [S03] (2020) WEBRip от GeneralFilm

Оригинальное название: Диверсант
Год выпуска: 2020
Жанр:  Боевик, военный, экранизация, ВОВ
Выпущено: Россия, ООО «Кинокомпания «Дивера Фильм»
Режиссер: Дмитрий Иосифов
В ролях: Кирилл Плетнёв, Алексей Бардуков, Сергей Колтаков, Артемий Александров, Ангелина Стречина, Эльдар Калимулин, Джошуа Гротхе, Марина Вайс, Дарья Румянцева, Кристиан Мок, Софья Кускова, Александр Бухаров, Адриан Цвикер, Дирк Мартенс, Андрей Фомин

О фильме: Июль 1942 года. Алексей Бобриков и Леонид Филатов получают приказ о ликвидации попавшего в плен капитана 1-го ранга Ивана Александрова, виновного в сдаче одного из ключевых рубежей обороны Севастополя. Диверсанты отправляются на задание вдвоем. Установив связь с партизанским отрядом, Алексей и Леонид выдвигаются в город. Первая попытка выполнить приказ оканчивается неудачей: при покушении Александров ранен и госпитализирован в тщательно охраняемый немецкий военный санаторий. После второй попытки захватить Александрова Бобриков и Филатов оказываются в немецком плену…

Качество: WEBRip
Видео: XviD build 73, 720x400 (16:9), 25.000 fps, ~ 1300 Kbps (~ 0.180 bit/pixel)
Аудио: 48.0 kHz, MP3, 2/0 ch, 192 kbps
Продолжительность: 4 x ~ 00:50:00
Перевод: Не требуется [Русский]
Cубтитры: нет

Релиз:
[+] MediaInfo
General
Complete name               : D:RazdachiDiversant.Krym.2020.WEBRip.GeneralFilmE01.Diversant.Krym.avi
Format                      : AVI
Format/Info                 : Audio Video Interleave
File size                   : 538 MiB
Duration                    : 50 min 3 s
Overall bit rate            : 1 503 kb/s
Writing application         : VirtualDubMod 1.5.10.3 | www.virtualdub-fr.org || (build 2550/release)
Writing library             : VirtualDubMod build 2550/release

Video
ID                          : 0
Format                      : MPEG-4 Visual
Format profile              : Advanced Simple@L5
Format settings             : BVOP1 / Custom Matrix
Format settings, BVOP       : 1
Format settings, QPel       : No
Format settings, GMC        : No warppoints
Format settings, Matrix     : Custom
Codec ID                    : XVID
Codec ID/Hint               : XviD
Duration                    : 50 min 3 s
Bit rate                    : 1 302 kb/s
Width                       : 720 pixels
Height                      : 400 pixels
Display aspect ratio        : 16:9
Frame rate                  : 25.000 FPS
Color space                 : YUV
Chroma subsampling          : 4:2:0
Bit depth                   : 8 bits
Scan type                   : Progressive
Compression mode            : Lossy
Bits/(Pixel*Frame)          : 0.181
Stream size                 : 466 MiB (87%)
Writing library             : XviD 73

Audio
ID                          : 1
Format                      : MPEG Audio
Format version              : Version 1
Format profile              : Layer 3
Codec ID                    : 55
Codec ID/Hint               : MP3
Duration                    : 50 min 3 s
Bit rate mode               : Constant
Bit rate                    : 192 kb/s
Channel(s)                  : 2 channels
Sampling rate               : 48.0 kHz
Frame rate                  : 41.667 FPS (1152 SPF)
Compression mode            : Lossy
Stream size                 : 68.7 MiB (13%)
Alignment                   : Aligned on interleaves
Interleave, duration        : 40  ms (1.00 video frame)
Interleave, preload duratio : 504  ms
Writing library             : LAME3.99r
Encoding settings           : -m s -V 4 -q 2 -lowpass 18.6 -b 192



Скриншоты:
[+] Всего файлов в раздаче - 4:
E01.Diversant.Krym.avi538.26 MB
E02.Diversant.Krym.avi555.12 MB
E03.Diversant.Krym.avi554.25 MB
E04.Diversant.Krym.avi581.03 MB

Похожие раздачи по запросу - диверсант:
2020-05-10 U Диверсант. Крым [S03] (2020) HDTVRip-AVC от Files-x 3.14 GB ↑ 361 ↓ 202
2020-05-10 U Диверсант. Крым [03х01-04 из 04] (2020) HDTVRip 720p от GeneralFilm 5.28 GB ↑ 371 ↓ 250
2020-05-10 U Диверсант. Крым [03х01-04 из 04] (2020) HDTVRip от GeneralFilm 2.57 GB ↑ 369 ↓ 215
2020-05-09 U Диверсант. Крым [S03] (2020) SATRip 2.73 GB ↑ 1160 ↓ 962

Отзывы
Зарегистрируйтесь чтобы добавить комментарий.
Загрузите программу
  uTorrent.exe
Обратная связь
Copyleft ©