↑↓torrent.by
Поиск
Логин: Регистрация
Пароль: Восстановить пароль

Вне игры / The Way Back (2020) BDRip 1080p от селезень | HDRezka Studio

Скачать vne-igry-the-way-back-2020-bdrip-1080p-ot-selezen-hdrezka-studio.torrent
U Магнитная ссылка Размер: 11.16 GB Раздают: 164 Качают: 38 Добавлен: 2020-05-13 07:27:50
Вне игры / The Way Back (2020) BDRip 1080p от селезень | HDRezka Studio

Название: Вне игры
Оригинальное название: The Way Back
Год выхода: 2020
Жанр: Драма, спорт
Режиссер: Гэвин О`Коннор
В ролях: Бен Аффлек, Янина Гаванкар, Микейла Уоткинс, Хэйз МакАртур, Да Винчи, Рэйчел Карпани, Тодд Стэшвик, Марлин Форте, Инка Кито, Глинн Тёрмен

О фильме: Джек Каннингэм в школе был восходящей баскетбольной звездой, но в какой-то момент покончил со спортом. Из-за пристрастия к таблеткам и алкоголю он в одночасье лишился всего - славы, денег и семьи. Вскоре жизнь даёт Джеку второй шанс - он берётся тренировать баскетбольную команду своей родной школы, которую все считают откровенными неудачниками.

Страна: США
Студия: Warner Bros., Spyglass Media Group, BRON Studios
Продолжительность: 01:48:26
Перевод: Профессиональный многоголосый | HDRezka Studio

Качество: BDRip 1080p
Видео: MPEG-4 AVC, 1920x804, 13.7 Mbit/s, 23.976 fps
Аудио #01: 48 kHz, AC3, 5.1, 448 Kbps | HDRezka Studio | RUS |
Аудио #02: 48 kHz, AC3, 5.1, 640 Kbps | Оригинал |  ENG |
Субтитры: Русские (Forced, full), английские

Релиз:


[+] MI
General
Unique ID                   : 161424083012551772270013965135521749739 (0x797125C3FEFD5D2CC9FA62488AFB9AEB)
Complete name               : F:The.Way.Back.2020.MVO.BDRip.1080p.seleZen.mkv
Format                      : Matroska
Format version              : Version 4
File size                   : 11.2 GiB
Duration                    : 1 h 48 min
Overall bit rate            : 14.7 Mb/s
Movie name                  : The Way Back 2020 from селезень
Encoded date                : UTC 2020-05-12 12:10:34
Writing application         : mkvmerge v46.0.0 ('No Deeper Escape') 64-bit
Writing library             : libebml v1.3.10 + libmatroska v1.5.2

Video
ID                          : 1
Format                      : AVC
Format/Info                 : Advanced Video Codec
Format profile              : High@L4.1
Format settings             : CABAC / 5 Ref Frames
Format settings, CABAC      : Yes
Format settings, Reference  : 5 frames
Codec ID                    : V_MPEG4/ISO/AVC
Duration                    : 1 h 48 min
Bit rate                    : 13.7 Mb/s
Width                       : 1 920 pixels
Height                      : 804 pixels
Display aspect ratio        : 2.40:1
Frame rate mode             : Constant
Frame rate                  : 23.976 (24000/1001) FPS
Color space                 : YUV
Chroma subsampling          : 4:2:0
Bit depth                   : 8 bits
Scan type                   : Progressive
Bits/(Pixel*Frame)          : 0.369
Stream size                 : 10.3 GiB (93%)
Title                       : seleZen
Writing library             : x264 core 146 r2538 121396c
Encoding settings           : cabac=1 / ref=5 / deblock=1:-2:-2 / analyse=0x3:0x133 / me=umh / subme=11 / psy=1 / psy_rd=1.00:0.00 / mixed_ref=0 / me_range=32 / chroma_me=1 / trellis=2 / 8x8dct=1 / cqm=0 / deadzone=21,11 / fast_pskip=0 / chroma_qp_offset=-2 / threads=48 / lookahead_threads=6 / sliced_threads=0 / nr=0 / decimate=0 / interlaced=0 / bluray_compat=0 / constrained_intra=0 / bframes=8 / b_pyramid=2 / b_adapt=2 / b_bias=0 / direct=3 / weightb=1 / open_gop=0 / weightp=2 / keyint=240 / keyint_min=23 / scenecut=40 / intra_refresh=0 / rc_lookahead=40 / rc=2pass / mbtree=0 / bitrate=13654 / ratetol=1.0 / qcomp=0.60 / qpmin=0 / qpmax=51 / qpstep=4 / cplxblur=20.0 / qblur=0.5 / vbv_maxrate=50000 / vbv_bufsize=62500 / nal_hrd=none / filler=0 / ip_ratio=1.40 / pb_ratio=1.30 / aq=3:0.80
Language                    : English
Default                     : Yes
Forced                      : No

Audio #1
ID                          : 2
Format                      : AC-3
Format/Info                 : Audio Coding 3
Commercial name             : Dolby Digital
Codec ID                    : A_AC3
Duration                    : 1 h 48 min
Bit rate mode               : Constant
Bit rate                    : 448 kb/s
Channel(s)                  : 6 channels
Channel layout              : L R C LFE Ls Rs
Sampling rate               : 48.0 kHz
Frame rate                  : 31.250 FPS (1536 SPF)
Compression mode            : Lossy
Stream size                 : 347 MiB (3%)
Title                       : MVO [HDRezka Studio]
Language                    : Russian
Service kind                : Complete Main
Default                     : Yes
Forced                      : Yes

Audio #2
ID                          : 3
Format                      : AC-3
Format/Info                 : Audio Coding 3
Commercial name             : Dolby Digital
Codec ID                    : A_AC3
Duration                    : 1 h 48 min
Bit rate mode               : Constant
Bit rate                    : 640 kb/s
Channel(s)                  : 6 channels
Channel layout              : L R C LFE Ls Rs
Sampling rate               : 48.0 kHz
Frame rate                  : 31.250 FPS (1536 SPF)
Compression mode            : Lossy
Stream size                 : 496 MiB (4%)
Title                       : Original
Language                    : English
Service kind                : Complete Main
Default                     : No
Forced                      : No

Text #1
ID                          : 4
Format                      : UTF-8
Codec ID                    : S_TEXT/UTF8
Codec ID/Info               : UTF-8 Plain Text
Duration                    : 1 h 25 min
Bit rate                    : 1 b/s
Count of elements           : 17
Stream size                 : 1.11 KiB (0%)
Title                       : Forced
Language                    : Russian
Default                     : Yes
Forced                      : Yes

Text #2
ID                          : 5
Format                      : UTF-8
Codec ID                    : S_TEXT/UTF8
Codec ID/Info               : UTF-8 Plain Text
Duration                    : 1 h 39 min
Bit rate                    : 107 b/s
Count of elements           : 1682
Stream size                 : 78.8 KiB (0%)
Title                       : Full [FOCS]
Language                    : Russian
Default                     : No
Forced                      : No

Text #3
ID                          : 6
Format                      : UTF-8
Codec ID                    : S_TEXT/UTF8
Codec ID/Info               : UTF-8 Plain Text
Duration                    : 1 h 39 min
Bit rate                    : 68 b/s
Count of elements           : 1713
Stream size                 : 50.0 KiB (0%)
Title                       : Full
Language                    : English
Default                     : No
Forced                      : No

Text #4
ID                          : 7
Format                      : UTF-8
Codec ID                    : S_TEXT/UTF8
Codec ID/Info               : UTF-8 Plain Text
Duration                    : 1 h 40 min
Bit rate                    : 77 b/s
Count of elements           : 1855
Stream size                 : 57.1 KiB (0%)
Title                       : SDH
Language                    : English
Default                     : No
Forced                      : No

Menu
00:00:00.000                : en:Chapter 1
00:09:40.371                : en:Chapter 2
00:15:53.786                : en:Chapter 3
00:24:44.816                : en:Chapter 4
00:31:35.101                : en:Chapter 5
00:37:54.897                : en:Chapter 6
00:45:01.073                : en:Chapter 7
00:54:15.418                : en:Chapter 8
01:04:14.851                : en:Chapter 9
01:09:06.142                : en:Chapter 10
01:17:57.464                : en:Chapter 11
01:27:57.188                : en:Chapter 12
01:33:17.508                : en:Chapter 13
01:42:39.403                : en:Chapter 14



Скриншоты:
[+] Всего файлов в раздаче - 1:
The.Way.Back.2020.MVO.BDRip.1080p.seleZen.mkv11.16 GB

Показать еще раздачи по запросу игры:
2020-08-25 U Игры джентльменов / The Ladykillers (2004) WEB-DL 1080p | D, P, A 9.43 GB ↑ 39 ↓ 25
2020-08-19 U Игры с огнём / Playing with Fire (2019) BDRip-AVC | Лицензия 1.46 GB ↑ 94 ↓ 8
2020-07-17 U Halo: The Master Chief Collection [v1.1698.0.0 + 4 игры] (2019) PC | RePack от FitGirl 35.54 GB ↑ 78 ↓ 164
2020-06-20 U Вне игры / The Way Back (2020) BDRip от Twister & ExKinoRay | iTunes 1.41 GB ↑ 116 ↓ 14
2020-06-19 U Вне игры / The Way Back (2020) BDRip 720p от селезень | D, P | iTunes 7.84 GB ↑ 165 ↓ 81
2020-06-19 U Вне игры / The Way Back (2020) BDRip 1080p от селезень | D, P | iTunes 11.45 GB ↑ 316 ↓ 70
2020-06-19 U Вне игры / The Way Back (2020) BDRip от MegaPeer | iTunes 1.41 GB ↑ 54 ↓ 18

Отзывы
Зарегистрируйтесь чтобы добавить комментарий.
Загрузите программу
  uTorrent.exe
Обратная связь
Copyleft ©