↑↓torrent.by
Поиск
Логин: Регистрация
Пароль: Восстановить пароль

Вивариум / Vivarium (2019) BDRip 1080p | P, A

Скачать vivarium-2019-bdrip-1080p-p-a.torrent
U Магнитная ссылка Размер: 10.43 GB Раздают: 188 Качают: 47 Добавлен: 2020-05-14 05:20:23
Вивариум / Vivarium (2019) BDRip 1080p | P, A

Название: Вивариум
Оригинальное название: Vivarium
Год выхода: 2019
Жанр: Фантастика, драма
Режиссер: Лоркан Финнеган
В ролях: Имоджен Путс, Даниэль Райан, Молли Макканн, Джесси Айзенберг, Джонатан Арис, Сенан Дженнингс, Инна Хардвик, Ольга Верли, Джек Хадсон, Майкл Макгьюн, Марк Куигли

О фильме:
Молодая учительница начальных классов Джемма и разнорабочий Том решают съехаться и заходят в агентство недвижимости, где их встречает очень странный сотрудник. Он привозит их в недавно построенный жилой квартал в пригороде, показывает дом N9, а затем исчезает. Парочка сначала пытается выбраться, но вскоре с ужасом понимает, что они застряли в этом жутко-стерильном лабиринте одинаковых строений, и все дороги приводят их к дому N9. В отчаянии они даже поджигают дом, но на следующий день обнаруживают его новёхоньким, а также находят коробку с младенцем и записку: «Вырастите ребёнка, получите свободу».

Страна: Ирландия, Дания, Бельгия
Студия: Lovely Productions, Fantastic Films, Frakas Productions
Продолжительность: 01:38:38
Перевод: Профессиональный многоголосый, Aвторский одноголосый

Файл
Кодек: x.264
Качество: BDRip 1080p | Vivarium.2019.1080p.BluRay.x264-ROVERS
Видео: MPEG-4 AVC, 13.6 Mбит/с, 1920x802, 23.976 кадр/с
Аудио #1: Русский (АС3, 6 ch, 448 Кбит/с, 48.0 KHz) Профессиональный (многоголосый, закадровый) HDRezka Studio
Аудио #2: Русский (АС3, 6 ch, 384 Кбит/с, 48.0 KHz) Aвторский (одноголосый, закадровый) А. Важенин (BadBajo)
Аудио #3: Английский (АС3, 6 ch, 640 Кбит/с, 48.0 KHz)
Субтитры: Русские (Forced, Full), английские (Full, SDH), испанские
► Без Рекламы!
Трейлер




[+] MediaInfo
Источник: Vivarium.2019.1080p.BluRay.x264-ROVERS
General
Unique ID                      : 171185118160125300881511948793839920705 (0x80C90DF45AC6DE4589351CD73FA8A641)
Complete name                  : Vivarium.2019.BDRip.1080p.mkv
Format                         : Matroska
Format version                 : Version 4
File size                      : 10.4 GiB
Duration                       : 1 h 38 min
Overall bit rate               : 15.1 Mb/s
Encoded date                   : UTC 2020-05-13 10:43:53
Writing application            : mkvmerge v7.1.0 ('Good Love') 64bit built on Jul 27 2014 13:06:55
Writing library                : libebml v1.3.0 + libmatroska v1.4.1

Video
ID                             : 1
Format                         : AVC
Format/Info                    : Advanced Video Codec
Format profile                 : High@L4.1
Format settings                : CABAC / 5 Ref Frames
Format settings, CABAC         : Yes
Format settings, Reference fra : 5 frames
Codec ID                       : V_MPEG4/ISO/AVC
Duration                       : 1 h 38 min
Bit rate                       : 13.6 Mb/s
Width                          : 1 920 pixels
Height                         : 802 pixels
Display aspect ratio           : 2.40:1
Frame rate mode                : Constant
Frame rate                     : 23.976 (24000/1001) FPS
Color space                    : YUV
Chroma subsampling             : 4:2:0
Bit depth                      : 8 bits
Scan type                      : Progressive
Bits/(Pixel*Frame)             : 0.370
Stream size                    : 9.40 GiB (90%)
Writing library                : x264 core 160 r3000 33f9e14
Encoding settings              : cabac=1 / ref=5 / deblock=1:-3:-3 / analyse=0x3:0x133 / me=umh / subme=9 / psy=1 / psy_rd=1.00:0.00 / mixed_ref=1 / me_range=16 / chroma_me=1 / trellis=2 / 8x8dct=1 / cqm=0 / deadzone=21,11 / fast_pskip=1 / chroma_qp_offset=-2 / threads=25 / lookahead_threads=2 / sliced_threads=0 / nr=0 / decimate=1 / interlaced=0 / bluray_compat=0 / constrained_intra=0 / bframes=3 / b_pyramid=2 / b_adapt=2 / b_bias=0 / direct=3 / weightb=1 / open_gop=0 / weightp=2 / keyint=250 / keyint_min=23 / scenecut=40 / intra_refresh=0 / rc_lookahead=60 / rc=crf / mbtree=1 / crf=16.0 / qcomp=0.60 / qpmin=0 / qpmax=69 / qpstep=4 / ip_ratio=1.40 / aq=1:1.00
Language                       : English
Default                        : Yes
Forced                         : No

Audio #1
ID                             : 2
Format                         : AC-3
Format/Info                    : Audio Coding 3
Commercial name                : Dolby Digital
Codec ID                       : A_AC3
Duration                       : 1 h 38 min
Bit rate mode                  : Constant
Bit rate                       : 448 kb/s
Channel(s)                     : 6 channels
Channel layout                 : L R C LFE Ls Rs
Sampling rate                  : 48.0 kHz
Frame rate                     : 31.250 FPS (1536 SPF)
Compression mode               : Lossy
Stream size                    : 316 MiB (3%)
Title                          : MVO | HDRezka Studio
Language                       : Russian
Service kind                   : Complete Main
Default                        : Yes
Forced                         : No

Audio #2
ID                             : 3
Format                         : AC-3
Format/Info                    : Audio Coding 3
Commercial name                : Dolby Digital
Codec ID                       : A_AC3
Duration                       : 1 h 38 min
Bit rate mode                  : Constant
Bit rate                       : 384 kb/s
Channel(s)                     : 6 channels
Channel layout                 : L R C LFE Ls Rs
Sampling rate                  : 48.0 kHz
Frame rate                     : 31.250 FPS (1536 SPF)
Compression mode               : Lossy
Stream size                    : 271 MiB (3%)
Title                          : AVO | А. Важенин
Language                       : Russian
Service kind                   : Complete Main
Default                        : No
Forced                         : No

Audio #3
ID                             : 4
Format                         : AC-3
Format/Info                    : Audio Coding 3
Commercial name                : Dolby Digital
Codec ID                       : A_AC3
Duration                       : 1 h 38 min
Bit rate mode                  : Constant
Bit rate                       : 640 kb/s
Channel(s)                     : 6 channels
Channel layout                 : L R C LFE Ls Rs
Sampling rate                  : 48.0 kHz
Frame rate                     : 31.250 FPS (1536 SPF)
Compression mode               : Lossy
Stream size                    : 452 MiB (4%)
Language                       : English
Service kind                   : Complete Main
Default                        : No
Forced                         : No

Text #1
ID                             : 5
Format                         : UTF-8
Codec ID                       : S_TEXT/UTF8
Codec ID/Info                  : UTF-8 Plain Text
Duration                       : 1 h 27 min
Bit rate                       : 1 b/s
Count of elements              : 18
Stream size                    : 982 Bytes (0%)
Title                          : Forced
Language                       : Russian
Default                        : Yes
Forced                         : No

Text #2
ID                             : 6
Format                         : UTF-8
Codec ID                       : S_TEXT/UTF8
Codec ID/Info                  : UTF-8 Plain Text
Duration                       : 1 h 27 min
Bit rate                       : 37 b/s
Count of elements              : 610
Stream size                    : 24.0 KiB (0%)
Title                          : Full
Language                       : Russian
Default                        : No
Forced                         : No

Text #3
ID                             : 7
Format                         : UTF-8
Codec ID                       : S_TEXT/UTF8
Codec ID/Info                  : UTF-8 Plain Text
Duration                       : 1 h 33 min
Bit rate                       : 24 b/s
Count of elements              : 689
Stream size                    : 16.8 KiB (0%)
Language                       : English
Default                        : No
Forced                         : No

Text #4
ID                             : 8
Format                         : UTF-8
Codec ID                       : S_TEXT/UTF8
Codec ID/Info                  : UTF-8 Plain Text
Duration                       : 1 h 34 min
Bit rate                       : 31 b/s
Count of elements              : 876
Stream size                    : 21.5 KiB (0%)
Title                          : SDH
Language                       : English
Default                        : No
Forced                         : No

Text #5
ID                             : 9
Format                         : PGS
Muxing mode                    : zlib
Codec ID                       : S_HDMV/PGS
Codec ID/Info                  : Picture based subtitle format used on BDs/HD-DVDs
Duration                       : 1 h 35 min
Bit rate                       : 10.1 kb/s
Count of elements              : 1670
Stream size                    : 6.85 MiB (0%)
Title                          : English SDH
Language                       : English
Default                        : No
Forced                         : No

Text #6
ID                             : 10
Format                         : PGS
Muxing mode                    : zlib
Codec ID                       : S_HDMV/PGS
Codec ID/Info                  : Picture based subtitle format used on BDs/HD-DVDs
Duration                       : 1 h 35 min
Bit rate                       : 6 533 b/s
Count of elements              : 1194
Stream size                    : 4.49 MiB (0%)
Title                          : Spanish
Language                       : Spanish
Default                        : No
Forced                         : No

Menu
00:00:00.000                   : en:Chapter 01
00:05:52.185                   : en:Chapter 02
00:12:26.871                   : en:Chapter 03
00:17:47.525                   : en:Chapter 04
00:22:23.217                   : en:Chapter 05
00:27:06.250                   : en:Chapter 06
00:35:45.977                   : en:Chapter 07
00:41:56.055                   : en:Chapter 08
00:46:25.199                   : en:Chapter 09
00:51:30.796                   : en:Chapter 10
00:54:06.034                   : en:Chapter 11
01:03:43.069                   : en:Chapter 12
01:12:21.587                   : en:Chapter 13
01:19:14.333                   : en:Chapter 14
01:25:33.295                   : en:Chapter 15
01:29:44.629                   : en:Chapter 16



Скриншоты:
[+] Всего файлов в раздаче - 1:
Vivarium.2019.BDRip.1080p.mkv10.43 GB

Похожие раздачи по запросу - вивариум:
2020-05-14 U Вивариум / Vivarium (2019) HDRip от MegaPeer | HDrezka Studio 1.46 GB ↑ 147 ↓ 32
2020-03-31 U Вивариум / Vivarium (2019) WEB-DL 1080p | HDrezka Studio 6.51 GB ↑ 303 ↓ 60
2020-03-28 U Вивариум / Vivarium (2019) WEBRip 720p | BadBajo 3.60 GB ↑ 152 ↓ 52
2020-03-27 U Вивариум / Vivarium (2019) WEB-DL 1080p l BadBajo 3.66 GB ↑ 902 ↓ 355

Отзывы
Зарегистрируйтесь чтобы добавить комментарий.
Обратная связь
Copyleft ©