↑↓torrent.by
Поиск
Логин: Регистрация
Пароль: Восстановить пароль

Солнечные противоположности / Solar Opposites [01x01-03 из 08] (2020) WEBRip 1080p | NewStudio

Скачать solnechnye-protivopolozhnosti-solar-opposites-01x01-03-iz-08-2020-webrip-1080p-newstudio.torrent
U Магнитная ссылка Размер: 1.70 GB Раздают: 44 Качают: 15 Добавлен: 2020-05-16 13:23:38
Солнечные противоположности / Solar Opposites [01x01-03 из 08] (2020) WEBRip 1080p | NewStudio

Название: Солнечные противоположности
Оригинальное название: Solar Opposites
Год выхода: 2020
Жанр: фантастика, комедия
Режиссер: Майк МакМахан, Джастин Ройланд
В ролях: Шон Джамброун, Мэри Мак, Джастин Ройланд, Венди Маклендон-Кови, Аманда Лейтон, Эндрю Каллахан, Кари Уолгрен, Томас Барбаска

О фильме:
Пришельцы, спасаясь со своей умирающей планеты, потерпели крушение на Земле и теперь вынуждены прикидываться обычными людьми. Человеческая цивилизация вызывает у гостей из другого мира немало вопросов, и они никак не могут до конца решить, хорошая она или нет. Точно известно только одно: они должны защищать Пупу — живой суперкомпьютер, который однажды эволюционирует, поглотит их и терраформирует Землю.

 
Страна: США
Студия: 20th Century Fox Television, Fox Television Animation, Justin Roiland's Solo Vanity Card Productions, Walt Disney Pictures and Television
Продолжительность: 3 x ~ 00:23:00
Перевод: Профессиональный (многоголосый, закадровый) NewStudio

Файл
Кодек: x264
Качество: WEBRip 1080p
Видео: MPEG-4 AVC, ~ 2992 Кбит/с, 1920x1080, 23.976 кадр/с
Звук:
Аудио#1: Russian AC3, 48.0 khz, 6 ch, 384 kbps - MVO, [NewStudio]
Аудио#2: English E-AC3, 48.0 khz, 6 ch, 256 kbps - Оригинал (английский)
Субтитры: Русские (Forced |NewStudio|), английские

***ВНИМАНИЕ! Присутствует ненормативная лексика!
***Примечание: Без рекламы
***Исходник: Solar.Opposites.S01.1080p.HULU.WEBRip.DDP5.1.x264-XLF
***Перевод: Наталия Зимина, Артём Кутергин, Юрий Башенкер, Булат Карабасов
***Редактор: Марина Хрычева
***Релиз: ad3wal3


[+] MediaInfo
General
Unique ID                   : 205573792801453773745772635639178510742 (0x9AA812847713B944AE0F6C48562EC196)
Complete name               : I:Solar.Opposites.S01E01.The.Matter.Transfer.Array.HULU.WEBRip.1080p.NewStudio.mkv
Format                      : Matroska
Format version              : Version 4 / Version 2
File size                   : 570 MiB
Duration                    : 21 min 54 s
Overall bit rate            : 3 636 kb/s
Encoded date                : UTC 2020-05-13 20:40:54
Writing application         : mkvmerge v8.3.0 ('Over the Horizon') 32bit
Writing library             : libebml v1.3.1 + libmatroska v1.4.2
Attachments                 : poster.png

Video
ID                          : 1
Format                      : AVC
Format/Info                 : Advanced Video Codec
Format profile              : High@L4
Format settings, CABAC      : Yes
Format settings, ReFrames   : 4 frames
Codec ID                    : V_MPEG4/ISO/AVC
Duration                    : 21 min 54 s
Bit rate                    : 2 992 kb/s
Width                       : 1 920 pixels
Height                      : 1 080 pixels
Display aspect ratio        : 16:9
Frame rate mode             : Constant
Frame rate                  : 23.976 (24000/1001) FPS
Color space                 : YUV
Chroma subsampling          : 4:2:0
Bit depth                   : 8 bits
Scan type                   : Progressive
Bits/(Pixel*Frame)          : 0.060
Stream size                 : 469 MiB (82%)
Language                    : English
Default                     : Yes
Forced                      : No

Audio #1
ID                          : 2
Format                      : AC-3
Format/Info                 : Audio Coding 3
Format settings, Endianness : Big
Codec ID                    : A_AC3
Duration                    : 21 min 54 s
Bit rate mode               : Constant
Bit rate                    : 384 kb/s
Channel(s)                  : 6 channels
Channel positions           : Front: L C R, Side: L R, LFE
Sampling rate               : 48.0 kHz
Frame rate                  : 31.250 FPS (1536 spf)
Bit depth                   : 16 bits
Compression mode            : Lossy
Stream size                 : 60.2 MiB (11%)
Title                       : NewStudio
Language                    : Russian
Service kind                : Complete Main
Default                     : Yes
Forced                      : No

Audio #2
ID                          : 3
Format                      : E-AC-3
Format/Info                 : Enhanced Audio Coding 3
Format settings, Endianness : Big
Codec ID                    : A_EAC3
Duration                    : 21 min 54 s
Bit rate mode               : Constant
Bit rate                    : 256 kb/s
Channel(s)                  : 6 channels
Channel positions           : Front: L C R, Side: L R, LFE
Sampling rate               : 48.0 kHz
Frame rate                  : 187.500 FPS (256 spf)
Compression mode            : Lossy
Stream size                 : 40.1 MiB (7%)
Language                    : English
Service kind                : Complete Main
Default                     : No
Forced                      : No

Text #1
ID                          : 4
Format                      : ASS
Codec ID                    : S_TEXT/ASS
Codec ID/Info               : Advanced Sub Station Alpha
Duration                    : 11 min 18 s
Bit rate                    : 6 b/s
Count of elements           : 7
Compression mode            : Lossless
Stream size                 : 539 Bytes (0%)
Title                       : Forced
Language                    : Russian
Default                     : Yes
Forced                      : Yes

Text #2
ID                          : 5
Format                      : UTF-8
Codec ID                    : S_TEXT/UTF8
Codec ID/Info               : UTF-8 Plain Text
Duration                    : 21 min 44 s
Bit rate                    : 140 b/s
Count of elements           : 515
Stream size                 : 22.3 KiB (0%)
Language                    : English
Default                     : No
Forced                      : No



Скриншоты:
[+] Всего файлов в раздаче - 3:
Solar.Opposites.S01E02.The.Unstable.Grey.Hole.HULU.WEBRip.1080p.NewStudio.mkv563.84 MB
Solar.Opposites.S01E01.The.Matter.Transfer.Array.HULU.WEBRip.1080p.NewStudio.mkv569.69 MB
Solar.Opposites.S01E03.The.Quantum.Ring.HULU.WEBRip.1080p.NewStudio.mkv603.51 MB

Похожие раздачи по запросу - солнечные:
2020-05-27 U Солнечные противоположности / Solar Opposites [S01] (2020) WEBRip | NewStudio 2.26 GB ↑ 38 ↓ 14
2020-05-25 U Солнечные противоположности / Solar Opposites [S01] (2020) WEBRip 1080p | NewStudio 4.65 GB ↑ 40 ↓ 20
2020-05-09 U Солнечные противоположности / Solar Opposites [S01] (2020) WEBRip 720p от Kerob | L 4.76 GB ↑ 104 ↓ 23

Отзывы
Зарегистрируйтесь чтобы добавить комментарий.
Обратная связь
Copyleft ©