↑↓torrent.by
Поиск
Логин: Регистрация
Пароль: Восстановить пароль

Предок (2019) WEB-DL 1080p от ELEKTRI4KA | iTunes

Скачать predok-2019-web-dl-1080p-ot-elektri4ka-itunes.torrent
U Магнитная ссылка Размер: 2.81 GB Раздают: 177 Качают: 80 Добавлен: 2020-05-17 07:15:24
Предок (2019) WEB-DL 1080p от ELEKTRI4KA | iTunes

Название: Предок
Год выхода: 2019
Жанр: комедия
Режиссер: Максим Зыков
В ролях: Максим Деричев, Дмитрий Гущин, Карина Разумовская, Никита Тарасов, Федор Лавров, Даниил Радионов, Яков Киселевич, Ульяна Медведюк, Светлана Колпакова, Марат Хисамов

О фильме: Сергей Лапин решает всерьез взяться за воспитание своего десятилетнего сына, когда неожиданно осознает, что мальчика воспитывают исключительно женщины: дома мама, в школе — женский педагогический состав. Но оказывается, что все не так просто, и процесс воспитания нужно начинать с себя. Никакие педагогические техники не помогут решить пресловутый вопрос отцов и детей, только личный пример и искреннее участие в жизни ребенка. Сергею Лапину предстоит разобраться, чем же живет нынешнее молодое поколение.

Выпущено: Россия / Artlight, Инвада фильм
Продолжительность: 01:20:33
Озвучивание: Оригинальное | iTunes

Файл
Формат: MKV
Качество: WEB-DL 1080p
Видео: AVC, 4604 Kb/s, 1920x802
Аудио: Russian: 48 kHz, AC3 Dolby Digital, 3/2 (L, C, R, l, r) + LFE ch, ~384 Kbps
Субтитры: Нет
Дополнительно: Сохранены оригинальные чаптеры.

Релиз: &


[+] MediaInfo:
Format: Matroska
Format version: Version 4 / Version 2
File size: 2.81 GiB
Duration: 1 h 20 min
Overall bit rate: 4 990 kb/s
Movie name: .ELEKTRI4KA.UNIONGANG.
Encoded date: UTC 2020-05-16 09:48:18
Writing application: mkvmerge v8.3.0 ('Over the Horizon') 64bit
Writing library: libebml v1.3.1 + libmatroska v1.4.2

Video
ID: 1
Format: AVC
Format/Info: Advanced Video Codec
Format profile: High@L4
Format settings, CABAC: Yes
Format settings, Reference frames: 5 frames
Codec ID: V_MPEG4/ISO/AVC
Duration: 1 h 20 min
Bit rate: 4 604 kb/s
Width: 1 920 pixels
Height: 802 pixels
Display aspect ratio: 2.40:1
Frame rate mode: Constant
Frame rate: 24.000 FPS
Color space: YUV
Chroma subsampling: 4:2:0
Bit depth: 8 bits
Scan type: Progressive
Bits/(Pixel*Frame): 0.125
Stream size: 2.59 GiB (92%)
Language: English
Default: Yes
Forced: No
Color range: Limited
Color primaries: BT.709
Transfer characteristics: BT.709
Matrix coefficients: BT.709

Audio
ID: 2
Format: AC-3
Format/Info: Audio Coding 3
Mode extension: CM (complete main)
Format settings, Endianness: Big
Codec ID: A_AC3
Duration: 1 h 20 min
Bit rate mode: Constant
Bit rate: 384 kb/s
Channel(s): 6 channels
Channel positions: Front: L C R, Side: L R, LFE
Sampling rate: 48.0 kHz
Frame rate: 31.250 FPS (1536 spf)
Bit depth: 16 bits
Compression mode: Lossy
Stream size: 221 MiB (8%)
Title: iTunes
Language: Russian
Default: Yes
Forced: No

Menu
00:00:00.000: en:Глава 1
00:04:15.958: en:Глава 2
00:10:57.708: en:Глава 3
00:22:06.833: en:Глава 4
00:28:31.708: en:Глава 5
00:35:16.916: en:Глава 6
00:39:41.916: en:Глава 7
00:48:35.791: en:Глава 8
00:57:46.541: en:Глава 9
01:04:47.332: en:Глава 10
01:11:23.123: en:Глава 11
01:15:31.330: en:Глава 12



Скриншоты:
[+] Всего файлов в раздаче - 1:
Predok.2019.WEB-DL.1080p.ELEKTRI4KA.UNIONGANG.mkv2.81 GB

Похожие раздачи по запросу - предок:
2020-05-19 U Предок (2019) WEB-DLRip-AVC от Files-x | iTunes 1.46 GB ↑ 40 ↓ 15
2020-05-17 U Предок (2019) WEB-DLRip | iTunes 741.95 MB ↑ 153 ↓ 34
2020-05-17 U Предок (2019) WEB-DLRip от Files-x | iTunes 1.36 GB ↑ 163 ↓ 32
2020-05-17 U Предок (2019) WEB-DLRip от ELEKTRI4KA | iTunes 1.36 GB ↑ 176 ↓ 46
2020-05-17 U Предок (2019) WEB-DLRip-AVC | iTunes 1.46 GB ↑ 332 ↓ 78

Отзывы
Зарегистрируйтесь чтобы добавить комментарий.
Обратная связь
Copyleft ©