↑↓torrent.by
Поиск
Логин: Регистрация
Пароль: Восстановить пароль

Место! (2018) WEB-DL 1080p от ELEKTRI4KA | iTunes

Скачать mesto-2018-web-dl-1080p-ot-elektri4ka-itunes.torrent
U Магнитная ссылка Размер: 2.04 GB Раздают: 248 Качают: 77 Добавлен: 2020-05-18 07:33:05
Место! (2018) WEB-DL 1080p от ELEKTRI4KA | iTunes

Название: Место!
Оригинальное название: Место!
Год выхода: 2018
Жанр: драма
Режиссер: Андрей Вальдберг
В ролях: Алексей Филимонов, Яна Гурьянова, Александр Кузнецов, Михаил Кремер, Андрей Корешков, Иван Василевский, Евгений Березин, Олег Ребров, Сергей Куаншалиев, Максим Мунхоев

О фильме:  В эту ночь никто не спит на районе. Серый пытается найти выход из депрессии. Его девушка Юля пытается найти заботу и понимание. Влюбленный в нее друг Краст пытается найти способ быть с ней. А друзья Краста Вова и Костя пытаются найти 10 граммов гашиша для вечеринки. Все они очень устали, но не могут перестать пытаться. Поэтому они курят, нюхают и пьют. Ведь если они остановятся, у них совсем ничего не останется.

Выпущено: Россия / One Leg Dog
Продолжительность: 00:59:11
Озвучивание: Оригинальное | iTunes

Формат: MKV (x264)
Качество: WEB-DL 1080p
Видео: 4617 Kb/s, 1920x804, 24 fps
Аудио #1: Russian: 48 kHz, AC3 Dolby Digital, 2/0 (L, R) ch, ~192 Kbps
Аудио #2: Russian: 48 kHz, AAC Low Complexity, 2/0 (L, R) ch, ~125 Kbps
Субтитры: English (Full)
Дополнительно: Сохранены оригинальные чаптеры.

Релиз: &


[+] MediaInfo:
Format : Matroska
Format version : Version 4
File size : 2.04 GiB
Duration : 59 min 11 s
Overall bit rate : 4 937 kb/s
Movie name : ELEKTRI4KA.UNIONGANG
Encoded date : UTC 2020-05-17 10:40:01
Writing application : mkvmerge v41.0.0 ('Smarra') 64-bit
Writing library : libebml v1.3.9 + libmatroska v1.5.2
Cover : Yes
Attachments : cover.jpg

Video
ID : 1
Format : AVC
Format/Info : Advanced Video Codec
Format profile : High@L4
Format settings : CABAC / 5 Ref Frames
Format settings, CABAC : Yes
Format settings, Reference frames : 5 frames
Codec ID : V_MPEG4/ISO/AVC
Duration : 59 min 11 s
Bit rate : 4 617 kb/s
Width : 1 920 pixels
Height : 804 pixels
Display aspect ratio : 2.40:1
Frame rate mode : Constant
Frame rate : 24.000 FPS
Color space : YUV
Chroma subsampling : 4:2:0
Bit depth : 8 bits
Scan type : Progressive
Bits/(Pixel*Frame) : 0.125
Stream size : 1.91 GiB (94%)
Title : ELEKTRI4KA.UNIONGANG
Language : English
Default : Yes
Forced : No
Color range : Limited
Color primaries : BT.709
Transfer characteristics : BT.709
Matrix coefficients : BT.709

Audio #1
ID : 2
Format : AC-3
Format/Info : Audio Coding 3
Commercial name : Dolby Digital
Codec ID : A_AC3
Duration : 59 min 11 s
Bit rate mode : Constant
Bit rate : 192 kb/s
Channel(s) : 2 channels
Channel layout : L R
Sampling rate : 48.0 kHz
Frame rate : 31.250 FPS (1536 SPF)
Compression mode : Lossy
Delay relative to video : -42 ms
Stream size : 81.3 MiB (4%)
Title : iTunes - AC3
Language : Russian
Service kind : Complete Main
Default : Yes
Forced : No

Audio #2
ID : 3
Format : AAC LC
Format/Info : Advanced Audio Codec Low Complexity
Codec ID : A_AAC-2
Duration : 59 min 11 s
Bit rate : 125 kb/s
Channel(s) : 2 channels
Channel layout : L R
Sampling rate : 48.0 kHz
Frame rate : 46.875 FPS (1024 SPF)
Compression mode : Lossy
Delay relative to video : -42 ms
Stream size : 52.9 MiB (3%)
Title : iTunes - AAC
Language : Russian
Default : No
Forced : No

Text
ID : 4
Format : UTF-8
Codec ID : S_TEXT/UTF8
Codec ID/Info : UTF-8 Plain Text
Duration : 59 min 9 s
Bit rate : 49 b/s
Count of elements : 587
Stream size : 21.3 KiB (0%)
Title : Eng
Language : English
Default : No
Forced : No

Menu
00:00:00.000 : en:Глава 1
00:04:42.666 : en:Глава 2
00:10:29.082 : en:Глава 3
00:18:56.914 : en:Глава 4
00:24:19.997 : en:Глава 5
00:32:04.955 : en:Глава 6
00:37:33.871 : en:Глава 7
00:44:42.704 : en:Глава 8
00:52:19.829 : en:Глава 9



Скриншоты:
[+] Всего файлов в раздаче - 1:
Mesto.2018.O.WEB-DL.1080p.ELEKTRI4KA.UNIONGANG.mkv2.04 GB

Показать еще раздачи по запросу место:
2020-06-04 U Идеальное место для убийства / Un posto ideale per uccidere (1971) BDRemux 1080р | L1 14.74 GB ↑ 21 ↓ 19
2020-05-19 U Место! (2018) WEB-DLRip-AVC от ExKinoRay | iTunes 1.37 GB ↑ 29 ↓ 10
2020-05-18 U Место! (2018) WEB-DLRip от ELEKTRI4KA | iTunes 744.06 MB ↑ 94 ↓ 21
2018-12-21 U Закону тут не место / L'ora legale (2017) BDRip 1080p | iTunes 7.30 GB ↑ 524 ↓ 111
2018-06-28 U Тихое место / A Quiet Place (2018) BDRip 720p от ExKinoRay | HDrezka Studio 4.43 GB ↑ 406 ↓ 33
2013-11-02 U Старикам тут не место / No Country for Old Men (2007) HDRip 3К1.45 GB ↑ 1172 ↓ 20
2013-10-27 U Место встречи изменить нельзя (1979) ВDRip 3К6.56 GB ↑ 149 ↓ 59

Отзывы
Зарегистрируйтесь чтобы добавить комментарий.
Обратная связь
Copyleft ©