↑↓torrent.by
Поиск
Логин: Регистрация
Пароль: Восстановить пароль

Капитан Саблезуб и Волшебный бриллиант / Kaptein Sabeltann og den magiske diamant (2019) WEB-DL 1080p | iTunes

Скачать kapitan-sablezub-i-volshebnyy-brilliant-kaptein-sabeltann-og-den-magiske-diamant-2019-web-dl-1080p-itunes.torrent
U Магнитная ссылка Размер: 3.18 GB Раздают: 109 Качают: 53 Добавлен: 2020-05-18 14:10:52
Капитан Саблезуб и Волшебный бриллиант / Kaptein Sabeltann og den magiske diamant (2019) WEB-DL 1080p | iTunes

Название: Капитан Саблезуб и Волшебный бриллиант
Оригинальное название: Kaptein Sabeltann og den magiske diamant
Год выхода: 2019
Жанр:  Мультфильм, семейный
Режиссеры: Марит Мум Оне,  Расмус А. Сивертсен
В ролях: Карре Хаген Сиднесс, Сири Скьеггедаль, Леонард Валестранд Эйке, Ида Леонора Валестранд Эйке, Бартек Камински, Шарлотта Фрогнер, Йон Ёигарден, Тобиас Зантельман, Тронд Фауса Аурвааг, Ян Мартин Йонсен

О фильме: Увлекательные приключения отважного и грозного капитана Саблезуба, бороздящего моря и океаны в поисках несметных сокровищ. Его главная цель - получить волшебный бриллиант, исполняющий любые желания. Однако, обычный мальчишка ухитряется похитить могущественный камень прямо из-под носа бывалого пирата.

Страна: Норвегия
Студия: Qvisten Animation
Продолжительность: 01:21:40
Перевод: Дублированный | iTunes

Файл
Качество: WEB-DL 1080p
Контейнер: MKV
Видео: MPEG-4 AVC, 1920x1038 (1.85:1), 5189 kbps, 24.000 fps
Аудио: Russian: АС3, 6 ch, 48 kHz, 16 bits, 384 kbps - DUB, iTunes
Субтитры: Нет

Релиз:


[+] MediaInfo
General
Unique ID                                : 148462401119290902988019440786646243180 (0x6FB0D182364459C35023248DC5E4176C)
Complete name                            : SABLEZUB_2019_WEB-DL_1080p-BLUEBIRD.mkv
Format                                   : Matroska
Format version                           : Version 4 / Version 2
File size                                : 3.18 GiB
Duration                                 : 1 h 21 min
Overall bit rate                         : 5 575 kb/s
Encoded date                             : UTC 2020-05-17 18:18:15
Writing application                      : mkvmerge v43.0.0 ('The Quartermaster') 64-bit
Writing library                          : libebml v1.3.10 + libmatroska v1.5.2
Cover                                    : Yes
Attachments                              : cover.jpg

Video
ID                                       : 1
Format                                   : AVC
Format/Info                              : Advanced Video Codec
Format profile                           : High@L4
Format settings, CABAC                   : Yes
Format settings, RefFrames               : 4 frames
Codec ID                                 : V_MPEG4/ISO/AVC
Duration                                 : 1 h 21 min
Bit rate                                 : 5 189 kb/s
Width                                    : 1 920 pixels
Height                                   : 1 038 pixels
Display aspect ratio                     : 1.85:1
Frame rate mode                          : Constant
Frame rate                               : 24.000 FPS
Color space                              : YUV
Chroma subsampling                       : 4:2:0
Bit depth                                : 8 bits
Scan type                                : Progressive
Bits/(Pixel*Frame)                       : 0.108
Stream size                              : 2.96 GiB (93%)
Language                                 : English
Default                                  : Yes
Forced                                   : No
Color range                              : Limited
Color primaries                          : BT.709
Transfer characteristics                 : BT.709
Matrix coefficients                      : BT.709

Audio
ID                                       : 2
Format                                   : AC-3
Format/Info                              : Audio Coding 3
Format settings, Endianness              : Big
Codec ID                                 : A_AC3
Duration                                 : 1 h 21 min
Bit rate mode                            : Constant
Bit rate                                 : 384 kb/s
Channel(s)                               : 6 channels
Channel positions                        : Front: L C R, Side: L R, LFE
Sampling rate                            : 48.0 kHz
Frame rate                               : 31.250 FPS (1536 SPF)
Bit depth                                : 16 bits
Compression mode                         : Lossy
Stream size                              : 224 MiB (7%)
Title                                    : [DUB] DD 5.1 @ 384 kbps (iTunes)
Language                                 : Russian
Service kind                             : Complete Main
Default                                  : Yes
Forced                                   : No

Menu
00:00:00.000                             : en:Глава 1
00:08:11.708                             : en:Глава 2
00:16:10.374                             : en:Глава 3
00:24:17.582                             : en:Глава 4
00:33:23.415                             : en:Глава 5
00:42:07.540                             : en:Глава 6
00:51:40.415                             : en:Глава 7
01:00:21.331                             : en:Глава 8
01:08:37.456                             : en:Глава 9
01:14:51.539                             : en:Глава 10



Скриншоты:
[+] Всего файлов в раздаче - 1:
SABLEZUB_2019_WEB-DL_1080p-BLUEBIRD.mkv3.18 GB

Похожие раздачи по запросу - капитан:
2020-05-19 U Капитан Саблезуб и Волшебный бриллиант / Kaptein Sabeltann og den magiske diamant (2019) WEB-DLRip | iTunes 1.37 GB ↑ 181 ↓ 36
2019-07-04 U Капитан Марвел / Captain Marvel (2019) BDRip 1080p от qqss44 & MegaPeer | Лицензия 7.75 GB ↑ 283 ↓ 142
2019-07-04 U Капитан Марвел / Captain Marvel (2019) BDRip 720p от HELLYWOOD | Лицензия 5.76 GB ↑ 32 ↓ 28
2019-05-31 U Капитан Марвел / Captain Marvel (2019) HDRip от MegaPeer | iTunes 1.47 GB ↑ 512 ↓ 115
2019-05-31 U Капитан Марвел / Captain Marvel (2019) BDRip 720p от селезень | iTunes 4.03 GB ↑ 466 ↓ 251

Отзывы
Зарегистрируйтесь чтобы добавить комментарий.
Обратная связь
Copyleft ©