↑↓torrent.by
Поиск
Логин: Регистрация
Пароль: Восстановить пароль

Камбэк (2019) WEBRip

Скачать kambek-2019-webrip.torrent
U Магнитная ссылка Размер: 343.69 MB Раздают: 53 Качают: 15 Добавлен: 2020-05-19 12:51:37
Камбэк (2019) WEBRip

Название: Камбэк
Год выхода: 2019
Жанр: комедия, гей-тема, короткометражный
Режиссер: Евгений Корчагин
В ролях: Денис Пьянов, Ян Цапник, Михаил Шац, Светлана Корчагина, Даниил Чибриков, Данила Якушев, Светлана Саягова, Ольга Теслер, Тимофей Трибунцев, Максим Демченко

О фильме:
Неудачливый актёр Сергей Ольховский предпринимает отчаянную попытку вписаться в киноиндустрию, следуя распространённым стереотипам о том, как всё устроено. Чтобы получить главную роль в фильме, на очередных пробах он прикидывается геем (так сказать, искусство требует жертв). Однако всё оказывается устроено сложнее, чем ему казалось.

Рекламы нет

Страна: Россия
Продолжительность: 00:24:27
Перевод: не требуется

Файл
Качество: WEBRip
Формат: AVI
Видео: XviD; 720 x 304 (2,35:1); 25 кадров/сек; 1767 Кбит/сек
Звук: AC3; 48 КГц; 2 канала; 192 Кбит/сек
Субтитры: нет

Семпл


[+] MediaInfo:

Общее
Формат : AVI
Формат/Информация : Audio Video Interleave
Размер файла : 344 Мбайт
Продолжительность : 24 м. 27 с.
Общий поток : 1965 Кбит/сек
Программа кодирования : VirtualDubModRus 1.5.10.2 (build 2542/release)
Библиотека кодирования : VirtualDubMod build 2542/release

Видео
Идентификатор : 0
Формат : MPEG-4 Visual
Профиль формата : Advanced Simple@L5
Настройки формата : BVOP2
Параметр BVOP формата : 2
Параметр QPel формата : Нет
Параметр GMC формата : Без точки перехода
Параметр матрицы формата : Default (MPEG)
Идентификатор кодека : XVID
Идентификатор кодека/Подсказка : XviD
Продолжительность : 24 м. 26 с.
Битрейт : 1767 Кбит/сек
Ширина : 720 пикселей
Высота : 304 пикселя
Соотношение сторон : 2,35:1
Частота кадров : 25,000 кадров/сек
Цветовое пространство : YUV
Субдискретизация насыщенности : 4:2:0
Битовая глубина : 8 бит
Тип развёртки : Прогрессивная
Метод сжатия : С потерями
Бит/(Пиксели*Кадры) : 0.323
Размер потока : 309 Мбайт (90%)
Библиотека кодирования : XviD 67

Аудио
Идентификатор : 1
Формат : AC-3
Формат/Информация : Audio Coding 3
Идентификатор кодека : 2000
Продолжительность : 24 м. 27 с.
Продолжительность оригинала : 24 м. 27 с.
Вид битрейта : Постоянный
Битрейт : 192 Кбит/сек
Каналы : 2 канала
Расположение каналов : Front: L R
Частота : 48,0 КГц
Частота кадров : 31,250 кадров/сек (1536 SPF)
Битовая глубина : 16 бит
Метод сжатия : С потерями
Размер потока : 33,6 Мбайт (10%)
Выравнивание : Соединение по промежуткам
Продолжительность промежутка : 160 мс. (4,00 видеокадра)
Время предзагрузки промежутка : 640 мс.
ServiceKind/Strin : Complete Main



Скриншоты:
[+] Всего файлов в раздаче - 1:
Камбэк.avi343.69 MB

Отзывы
Зарегистрируйтесь чтобы добавить комментарий.
Обратная связь
Copyleft ©