↑↓torrent.by
Поиск
Логин: Регистрация
Пароль: Восстановить пароль

Битва за Землю / Captive State (2019) BDRip-AVC от ExKinoRay | P

Скачать bitva-za-zemlyu-captive-state-2019-bdrip-avc-ot-exkinoray-p.torrent
U Магнитная ссылка Размер: 2.31 GB Раздают: 122 Качают: 33 Добавлен: 2020-05-19 15:51:23
Битва за Землю / Captive State (2019) BDRip-AVC от ExKinoRay | P

Название: Битва за Землю
Оригинальное название: Captive State
Год выпуска: 2019
Жанр:  Фантастика, триллер
Режиссер: Руперт Уайатт
В ролях: Джон Гудмен, Вера Фармига, Эштон Сандерс, Джонатан Мэйджерс, Кевин Данн, Джеймс Рэнсон, Алан Рак, Мадлен Брюэр, Машин Ган Келли, Кевин Дж. О`Коннор, Бен Дэниелс, Кэйтлин Эвальд, Лоуренс Грим, Гай Ван Сверинген, Елена Флорес, Д.Б. Суини, Рене Л. Морено, Та’Ронда Джонс, Ясен Пеянков, Кики Лэйн, Шэннон Кокрен

Описание:   Мы всегда знали, что не одни в этом мире. Мы отправляли сигналы в надежде получить ответ. И нас услышали. За считанные часы пришельцы захватили Землю и установили свое правительство. Сотовая связь и интернет отключены, электронные библиотеки уничтожены. Большой инопланетный брат следит за каждым, его дроны-охотники днем и ночью патрулируют улицы новой Земли. Мы — последние, те, у кого нет имени, невидимые для системы. Сегодня мы вернем нашу планету.

Страна: США
Студия: DreamWorks, Amblin Partners, Lightfuse & Gettaway
Продолжительность: 01:49:34
Перевод: Профессиональный многоголосый | HDRezka Studio
Профессиональный многоголосый | СВ Студия

БЕЗ КАКОЙ-ЛИБО РЕКЛАМЫ!

Формат: MKV
Качество: BDRip-AVC
Видео: MPEG-4 AVC, 1024x428 (2.40:1), 23.976 fps, 1928 Kbps, 0.183 bit/pixel
Аудио #01: 48 kHz, AC3, 5.1, 448 Kbps | HDRezka Studio | RUS |
Аудио #02: 48 kHz, AC3, 2.0, 192 Kbps | СВ Студия | RUS |
Аудио #03: 48 kHz, AC3, 5.1, 448 Kbps | Оригинал |  ENG |
Субтитры: Русские (Forced, Full), английские

Релиз:

Автор релиза:


[+] ОтчетМедиаИнфо

General
Unique ID                                : 234719895747533959245560878576619475221 (0xB0956856ECABEFA3A64A2E691A9BD115)
Complete name                            : F:Captive.State.2019.MVO.BDRip.AVC.ExKinoRay.mkv
Format                                   : Matroska
Format version                           : Version 2
File size                                : 2.31 GiB
Duration                                 : 1 h 49 min
Overall bit rate                         : 3 018 kb/s
Movie name                               : Captive State 2019 from ExKinoRay
Encoded date                             : UTC 2020-05-19 03:55:36
Writing application                      : mkvmerge v5.6.0 ('Kenya Kane') built on May 27 2012 16:44:04
Writing library                          : libebml v1.2.3 + libmatroska v1.3.0

Video
ID                                       : 1
Format                                   : AVC
Format/Info                              : Advanced Video Codec
Format profile                           : High@L4.1
Format settings, CABAC                   : Yes
Format settings, ReFrames                : 12 frames
Codec ID                                 : V_MPEG4/ISO/AVC
Duration                                 : 1 h 49 min
Bit rate                                 : 1 928 kb/s
Width                                    : 1 024 pixels
Height                                   : 428 pixels
Display aspect ratio                     : 2.40:1
Frame rate mode                          : Constant
Frame rate                               : 23.976 (23976/1000) FPS
Color space                              : YUV
Chroma subsampling                       : 4:2:0
Bit depth                                : 8 bits
Scan type                                : Progressive
Bits/(Pixel*Frame)                       : 0.183
Stream size                              : 1.43 GiB (62%)
Title                                    : Enigma
Writing library                          : x264 core 152 r2851 ba24899
Encoding settings                        : cabac=1 / ref=12 / deblock=1:-2:-2 / analyse=0x3:0x113 / me=umh / subme=10 / psy=1 / psy_rd=1.00:0.00 / mixed_ref=1 / me_range=32 / chroma_me=1 / trellis=2 / 8x8dct=1 / cqm=0 / deadzone=21,11 / fast_pskip=0 / chroma_qp_offset=-2 / threads=12 / lookahead_threads=3 / sliced_threads=0 / nr=0 / decimate=0 / interlaced=0 / bluray_compat=0 / constrained_intra=0 / bframes=12 / b_pyramid=2 / b_adapt=2 / b_bias=0 / direct=3 / weightb=1 / open_gop=0 / weightp=2 / keyint=240 / keyint_min=23 / scenecut=40 / intra_refresh=0 / rc=2pass / mbtree=0 / bitrate=1928 / ratetol=1.0 / qcomp=0.60 / qpmin=0 / qpmax=51 / qpstep=4 / cplxblur=20.0 / qblur=0.5 / ip_ratio=1.30 / pb_ratio=1.20 / aq=3:0.80
Language                                 : English
Default                                  : Yes
Forced                                   : No
Color range                              : Limited
Color primaries                          : BT.709
Transfer characteristics                 : BT.709
Matrix coefficients                      : BT.709

Audio #1
ID                                       : 2
Format                                   : AC-3
Format/Info                              : Audio Coding 3
Mode extension                           : CM (complete main)
Format settings, Endianness              : Big
Codec ID                                 : A_AC3
Duration                                 : 1 h 49 min
Bit rate mode                            : Constant
Bit rate                                 : 448 kb/s
Channel(s)                               : 6 channels
Channel positions                        : Front: L C R, Side: L R, LFE
Sampling rate                            : 48.0 kHz
Frame rate                               : 31.250 FPS (1536 spf)
Compression mode                         : Lossy
Stream size                              : 351 MiB (15%)
Title                                    : MVO (HDRezka Studio)
Language                                 : Russian
Default                                  : Yes
Forced                                   : No

Audio #2
ID                                       : 3
Format                                   : AC-3
Format/Info                              : Audio Coding 3
Mode extension                           : CM (complete main)
Format settings, Endianness              : Big
Codec ID                                 : A_AC3
Duration                                 : 1 h 49 min
Bit rate mode                            : Constant
Bit rate                                 : 192 kb/s
Channel(s)                               : 2 channels
Channel positions                        : Front: L R
Sampling rate                            : 48.0 kHz
Frame rate                               : 31.250 FPS (1536 spf)
Compression mode                         : Lossy
Stream size                              : 150 MiB (6%)
Title                                    : MVO (SV Studio)
Language                                 : Russian
Default                                  : No
Forced                                   : No

Audio #3
ID                                       : 4
Format                                   : AC-3
Format/Info                              : Audio Coding 3
Mode extension                           : CM (complete main)
Format settings, Endianness              : Big
Codec ID                                 : A_AC3
Duration                                 : 1 h 49 min
Bit rate mode                            : Constant
Bit rate                                 : 448 kb/s
Channel(s)                               : 6 channels
Channel positions                        : Front: L C R, Side: L R, LFE
Sampling rate                            : 48.0 kHz
Frame rate                               : 31.250 FPS (1536 spf)
Compression mode                         : Lossy
Stream size                              : 351 MiB (15%)
Title                                    : Original
Language                                 : English
Default                                  : No
Forced                                   : No

Text #1
ID                                       : 5
Format                                   : UTF-8
Codec ID                                 : S_TEXT/UTF8
Codec ID/Info                            : UTF-8 Plain Text
Title                                    : Forced
Language                                 : Russian
Default                                  : Yes
Forced                                   : No

Text #2
ID                                       : 6
Format                                   : UTF-8
Codec ID                                 : S_TEXT/UTF8
Codec ID/Info                            : UTF-8 Plain Text
Title                                    : Full (Focs)
Language                                 : Russian
Default                                  : No
Forced                                   : No

Text #3
ID                                       : 7
Format                                   : UTF-8
Codec ID                                 : S_TEXT/UTF8
Codec ID/Info                            : UTF-8 Plain Text
Title                                    : Full
Language                                 : English
Default                                  : No
Forced                                   : No

Text #4
ID                                       : 8
Format                                   : UTF-8
Codec ID                                 : S_TEXT/UTF8
Codec ID/Info                            : UTF-8 Plain Text
Title                                    : SDH
Language                                 : English
Default                                  : No
Forced                                   : No

Menu
00:00:00.000                             : en:Chapter 01
00:06:25.385                             : en:Chapter 02
00:12:34.671                             : en:Chapter 03
00:18:46.000                             : en:Chapter 04
00:24:21.377                             : en:Chapter 05
00:26:55.113                             : en:Chapter 06
00:32:44.504                             : en:Chapter 07
00:38:27.597                             : en:Chapter 08
00:43:36.948                             : en:Chapter 09
00:47:17.626                             : en:Chapter 10
00:52:14.465                             : en:Chapter 11
01:00:01.598                             : en:Chapter 12
01:06:42.373                             : en:Chapter 13
01:11:29.577                             : en:Chapter 14
01:15:18.222                             : en:Chapter 15
01:19:40.859                             : en:Chapter 16
01:23:32.049                             : en:Chapter 17
01:31:46.543                             : en:Chapter 18
01:38:12.011                             : en:Chapter 19
01:45:00.711                             : en:Chapter 20




Скриншоты:
[+] Всего файлов в раздаче - 1:
Captive.State.2019.MVO.BDRip.AVC.ExKinoRay.mkv2.31 GB

Показать еще раздачи по запросу битва:
2020-07-06 U Битва коалиций. Вторая мировая война [01-04 из 04] (2020) WEBRip 1080p 5.75 GB ↑ 110 ↓ 32
2020-07-06 U Битва ставок [01-04 из 04] (2020) WEBRip 1080p 5.84 GB ↑ 49 ↓ 27
2020-06-30 U Великая битва / Ansiseong / The Great Battle (2018) BDRip 1080p | P 18.14 GB ↑ 81 ↓ 43
2020-06-13 U Михайловский Александр, Маркова Юлия - Галактические войны 3. Герой империи. Битва за время (2019) МР3 495.92 MB ↑ 20 ↓ 1
2020-06-04 U Виктор Пелевин - Лампа Мафусаила, или Крайняя битва чекистов с масонами (2018) MP3 330.22 MB ↑ 22 ↓ 6
2019-07-29 U Битва за Землю / Captive State (2019) BDRip | iTunes 2.32 GB ↑ 755 ↓ 44
2017-12-17 U Битва экстрасенсов [18x13] [эфир от 16.12] (2017) SATRip 992.59 MB ↑ 765 ↓ 71

Отзывы
Зарегистрируйтесь чтобы добавить комментарий.
Обратная связь
Copyleft ©