↑↓torrent.by
Поиск
Логин: Регистрация
Пароль: Восстановить пароль

Удивительное путешествие доктора Дулиттла / Dolittle (2020) BDRip 720p от селезень | D, P | Лицензия

Скачать udivitelnoe-puteshestvie-doktora-dulittla-dolittle-2020-bdrip-720p-ot-selezen-d-p-licenziya.torrent
U Магнитная ссылка Размер: 6.54 GB Раздают: 34 Качают: 9 Добавлен: 2020-05-21 06:56:40
Удивительное путешествие доктора Дулиттла / Dolittle (2020) BDRip 720p от селезень | D, P | Лицензия

Название: Удивительное путешествие доктора Дулиттла
Оригинальное название: Dolittle
Год выхода: 2020
Жанр: Приключения, комедия, семейный, фэнтези
Режиссер: Стивен Гейган
В ролях: Роберт Дауни мл., Антонио Бандерас, Майкл Шин, Джим Бродбент, Джесси Бакли, Гарри Коллетт, Эмма Томпсон, Рами Малек, Джон Сина, Кумэйл Нанджиани

О фильме: Семь лет назад доктор Дулиттл, прославленный врач-ветеринар, живущий в викторианской Англии, потерял свою жену. Теперь он ведет затворнический образ жизни, скрывшись за высокими стенами своего поместья. Экзотические животные из его коллекции - его единственная компания. Но когда неизвестная болезнь становится угрозой для жизни юной королевы, доктору Дулиттлу приходится покинуть свое убежище и отправиться в невероятное путешествие к мифическому острову. В поисках лекарства для королевы он вступит в схватку с беспощадными врагами, познакомится с диковинными существами и будет вынужден проявить недюжинное мужество и смекалку.

Страна: США, Китай, Великобритания
Студия: Perfect World Pictures, Team Downey, Universal Pictures
Продолжительность: 01:41:23
Перевод(ы):
#1: Дублированный | Лицензия
#2: Профессиональный многоголосый | HDRezka Studio

Качество: BDRip 720p
Видео: MPEG-4 AVC, 1280x692, 7500 Kbit/s, 23.976 fps
Аудио #01: 48 kHz, AC3, 5.1, 640 Kbps | Дублированный | RUS |
Аудио #02: 48 kHz, AC3, 5.1, 448 Kbps | HDRezka Studio | RUS |
Аудио #03: 48 kHz, AC3, 2.0, 192 Kbps | Дублированный | UKR |
Аудио #04: 48 kHz, AC3, 5.1, 448 Kbps | Оригинал |  ENG |
Субтитры: Русские (Forced, full), украинские (Forced), английские

Релиз:


[+] MI
General
Unique ID                   : 316970841768745445638237335901380011290 (0xEE765D12A967AAF64B558CDF9E8BE51A)
Complete name               : E:Video111Dolittle.2020.Lic.BDRip.720p.seleZen.mkv
Format                      : Matroska
Format version              : Version 4
File size                   : 6.54 GiB
Duration                    : 1 h 41 min
Overall bit rate            : 9 229 kb/s
Movie name                  : Dolittle 2020 from селезень
Encoded date                : UTC 2020-05-20 11:58:31
Writing application         : mkvmerge v40.0.0 ('Old Town Road + Pony') 64-bit
Writing library             : libebml v1.3.9 + libmatroska v1.5.2
Cover                       : Yes
Attachments                 : cover.jpg

Video
ID                          : 1
Format                      : AVC
Format/Info                 : Advanced Video Codec
Format profile              : High@L4.1
Format settings             : CABAC / 9 Ref Frames
Format settings, CABAC      : Yes
Format settings, Reference  : 9 frames
Codec ID                    : V_MPEG4/ISO/AVC
Duration                    : 1 h 41 min
Bit rate                    : 7 500 kb/s
Width                       : 1 280 pixels
Height                      : 692 pixels
Display aspect ratio        : 1.85:1
Frame rate mode             : Constant
Frame rate                  : 23.976 (24000/1001) FPS
Color space                 : YUV
Chroma subsampling          : 4:2:0
Bit depth                   : 8 bits
Scan type                   : Progressive
Bits/(Pixel*Frame)          : 0.353
Stream size                 : 5.31 GiB (81%)
Title                       : Encoded by seleZen
Writing library             : x264 core 142 r2431+42 c69a006 tMod [8-bit@all X86_64]
Encoding settings           : cabac=1 / ref=9 / deblock=1:-2:-2 / analyse=0x3:0x133 / me=umh / subme=10 / psy=1 / fade_compensate=0.00 / psy_rd=1.00:0.00 / mixed_ref=1 / me_range=32 / chroma_me=1 / trellis=2 / 8x8dct=1 / cqm=0 / deadzone=21,11 / fast_pskip=0 / chroma_qp_offset=-2 / threads=24 / lookahead_threads=4 / sliced_threads=0 / nr=0 / decimate=0 / interlaced=0 / bluray_compat=0 / constrained_intra=0 / fgo=0 / bframes=8 / b_pyramid=2 / b_adapt=2 / b_bias=0 / direct=3 / weightb=1 / open_gop=0 / weightp=2 / keyint=240 / keyint_min=23 / scenecut=40 / intra_refresh=0 / rc_lookahead=50 / rc=2pass / mbtree=0 / bitrate=7500 / ratetol=1.0 / qcomp=0.60 / qpmin=0:0:0 / qpmax=51:51:51 / qpstep=4 / cplxblur=20.0 / qblur=0.5 / vbv_maxrate=50000 / vbv_bufsize=62500 / nal_hrd=none / filler=0 / ip_ratio=1.40 / pb_ratio=1.30 / aq=3:0.80 / aq-sensitivity=10.00 / aq-factor=1.00:1.00:1.00 / aq2=0 / aq3=0
Language                    : English
Default                     : Yes
Forced                      : No

Audio #1
ID                          : 2
Format                      : AC-3
Format/Info                 : Audio Coding 3
Commercial name             : Dolby Digital
Codec ID                    : A_AC3
Duration                    : 1 h 41 min
Bit rate mode               : Constant
Bit rate                    : 640 kb/s
Channel(s)                  : 6 channels
Channel layout              : L R C LFE Ls Rs
Sampling rate               : 48.0 kHz
Frame rate                  : 31.250 FPS (1536 SPF)
Compression mode            : Lossy
Stream size                 : 464 MiB (7%)
Title                       : Dub [License]
Language                    : Russian
Service kind                : Complete Main
Default                     : Yes
Forced                      : Yes

Audio #2
ID                          : 3
Format                      : AC-3
Format/Info                 : Audio Coding 3
Commercial name             : Dolby Digital
Codec ID                    : A_AC3
Duration                    : 1 h 41 min
Bit rate mode               : Constant
Bit rate                    : 448 kb/s
Channel(s)                  : 6 channels
Channel layout              : L R C LFE Ls Rs
Sampling rate               : 48.0 kHz
Frame rate                  : 31.250 FPS (1536 SPF)
Compression mode            : Lossy
Stream size                 : 325 MiB (5%)
Title                       : MVO [HDRezka Studio]
Language                    : Russian
Service kind                : Complete Main
Default                     : No
Forced                      : No

Audio #3
ID                          : 4
Format                      : AC-3
Format/Info                 : Audio Coding 3
Commercial name             : Dolby Digital
Codec ID                    : A_AC3
Duration                    : 1 h 41 min
Bit rate mode               : Constant
Bit rate                    : 192 kb/s
Channel(s)                  : 2 channels
Channel layout              : L R
Sampling rate               : 48.0 kHz
Frame rate                  : 31.250 FPS (1536 SPF)
Compression mode            : Lossy
Stream size                 : 139 MiB (2%)
Title                       : Dub
Language                    : Ukrainian
Service kind                : Complete Main
Default                     : No
Forced                      : No

Audio #4
ID                          : 5
Format                      : AC-3
Format/Info                 : Audio Coding 3
Commercial name             : Dolby Digital
Codec ID                    : A_AC3
Duration                    : 1 h 41 min
Bit rate mode               : Constant
Bit rate                    : 448 kb/s
Channel(s)                  : 6 channels
Channel layout              : L R C LFE Ls Rs
Sampling rate               : 48.0 kHz
Frame rate                  : 31.250 FPS (1536 SPF)
Compression mode            : Lossy
Stream size                 : 325 MiB (5%)
Title                       : Original
Language                    : English
Service kind                : Complete Main
Default                     : No
Forced                      : No

Text #1
ID                          : 6
Format                      : UTF-8
Codec ID                    : S_TEXT/UTF8
Codec ID/Info               : UTF-8 Plain Text
Duration                    : 3 min 40 s
Bit rate                    : 113 b/s
Count of elements           : 62
Stream size                 : 3.06 KiB (0%)
Title                       : Forced [For Dubbing]
Language                    : Russian
Default                     : Yes
Forced                      : Yes

Text #2
ID                          : 7
Format                      : UTF-8
Codec ID                    : S_TEXT/UTF8
Codec ID/Info               : UTF-8 Plain Text
Duration                    : 4 min 11 s
Bit rate                    : 112 b/s
Count of elements           : 72
Stream size                 : 3.47 KiB (0%)
Title                       : Forced [For HDRezka Studio]
Language                    : Russian
Default                     : No
Forced                      : No

Text #3
ID                          : 8
Format                      : UTF-8
Codec ID                    : S_TEXT/UTF8
Codec ID/Info               : UTF-8 Plain Text
Duration                    : 1 h 32 min
Bit rate                    : 97 b/s
Count of elements           : 1393
Stream size                 : 66.0 KiB (0%)
Title                       : Full
Language                    : Russian
Default                     : No
Forced                      : No

Text #4
ID                          : 9
Format                      : UTF-8
Codec ID                    : S_TEXT/UTF8
Codec ID/Info               : UTF-8 Plain Text
Duration                    : 20 s 500 ms
Bit rate                    : 114 b/s
Count of elements           : 4
Stream size                 : 293 Bytes (0%)
Title                       : Forced
Language                    : Ukrainian
Default                     : No
Forced                      : No

Text #5
ID                          : 10
Format                      : UTF-8
Codec ID                    : S_TEXT/UTF8
Codec ID/Info               : UTF-8 Plain Text
Duration                    : 1 h 41 min
Bit rate                    : 73 b/s
Count of elements           : 2060
Stream size                 : 54.8 KiB (0%)
Title                       : Full
Language                    : English
Default                     : No
Forced                      : No

Menu
00:00:00.000                : en:Chapter 01
00:04:22.595                : en:Chapter 02
00:09:36.826                : en:Chapter 03
00:14:31.245                : en:Chapter 04
00:18:37.324                : en:Chapter 05
00:20:57.798                : en:Chapter 06
00:23:02.172                : en:Chapter 07
00:29:30.226                : en:Chapter 08
00:35:58.156                : en:Chapter 09
00:39:08.471                : en:Chapter 10
00:45:47.745                : en:Chapter 11
00:48:28.906                : en:Chapter 12
00:53:06.933                : en:Chapter 13
00:59:13.466                : en:Chapter 14
01:04:55.141                : en:Chapter 15
01:11:16.772                : en:Chapter 16
01:17:05.996                : en:Chapter 17
01:23:36.011                : en:Chapter 18
01:30:02.063                : en:Chapter 19
01:32:58.364                : en:Chapter 20



Скриншоты:
[+] Всего файлов в раздаче - 1:
Dolittle.2020.Lic.BDRip.720p.seleZen.mkv6.54 GB

Показать еще раздачи по запросу удивительное:
2020-05-21 U Удивительное путешествие доктора Дулиттла / Dolittle (2020) BDRip 1080p от селезень | D, P | Лицензия 11.13 GB ↑ 42 ↓ 16
2020-05-21 U Удивительное путешествие доктора Дулиттла / Dolittle (2020) BDRip 1080p от HELLYWOOD | Лицензия 7.76 GB ↑ 41 ↓ 8
2020-05-20 U Удивительное путешествие доктора Дулиттла / Dolittle (2020) BDRip от MegaPeer | Лицензия 1.47 GB ↑ 3195 ↓ 62
2020-04-19 U Удивительное путешествие доктора Дулиттла / Dolittle (2020) BDRip-HEVC 1080p от HEVC-CLUB | iTunes 6.91 GB ↑ 87 ↓ 68
2020-04-16 U Удивительное путешествие доктора Дулиттла / Dolittle (2020) UHD BDRip 2160p от селезень | 4K | HDR | iTunes 15.33 GB ↑ 156 ↓ 125
2020-04-16 U Удивительное путешествие доктора Дулиттла / Dolittle (2020) BDRip 1080p от HELLYWOOD | iTunes 7.58 GB ↑ 408 ↓ 184
2020-04-16 U Удивительное путешествие доктора Дулиттла / Dolittle (2020) BDRemux 1080p от селезень | iTunes 22.83 GB ↑ 50 ↓ 28

Отзывы
Зарегистрируйтесь чтобы добавить комментарий.
Обратная связь
Copyleft ©