↑↓torrent.by
Поиск
Логин: Регистрация
Пароль: Восстановить пароль

Human Lost: Исповедь неполноценного человека / Human Lost: Ningen Shikkaku (2019) WEB-DL 1080p от FortunaTV | Reanimedia

Скачать human-lost-ispoved-nepolnocennogo-cheloveka-ningen-shikkaku-2019-web-dl-1080p-ot-fortunatv-reanimedia.torrent
U Магнитная ссылка Размер: 3.67 GB Раздают: 48 Качают: 12 Добавлен: 2020-05-22 05:24:13
Human Lost: Исповедь неполноценного человека / Human Lost: Ningen Shikkaku (2019) WEB-DL 1080p от FortunaTV | Reanimedia

Название: Human Lost: Исповедь неполноценного человека
Оригинальное название: Human Lost: Ningen Shikkaku
Год выхода: 2019
Жанр: драма, фантастика
Режиссер: Фуминори Кидзаки
В ролях: Мамору Мияно, Кана Ханадзава, Такахиро Сакурай, Дзюн Фукуяма, Кэнъитиро Мацуда, Харука Тисуга, Рикия Кояма, Миюки Савасиро

О фильме:
Токио, 2036 год. Революционные медицинские технологии победили смерть: при помощи внутренних наноустройств, которые контролируются системой S.H.E.L.L., человек гарантированно может прожить 120 лет, не болея и не нуждаясь в лечении травм. Это привело к социальному и экономическому расслоению, падению морали, деградации общества и сильному загрязнению окружающей среды. Также появился феномен потери человечности, когда люди, отключённые от S.H.E.L.L., становятся увечными и уродливыми.

Наркоман и отброс Оба Ёдзу, уже практически находясь на дне жизни, внезапно обнаруживает в себе невероятные способности.

 
Страна: Япония
Продолжительность: ~ 01:49:21
Перевод: Дублированный | Reanimedia

Файл
Формат: MKV
Кодек: MPEG-4 AVC
Качество: WEB-DL 1080p
Видео: 1920x1036, ~ 4 554 kb/s, 23.976 FPS. 8 bits
Аудио #1(русский): AAC LC, ~ 248 kb/s, 2 channels, 48.0 kHz
Субтитры: отсутствуют

Релиз от: FortunaTV


[+] MediaInfo

General
Unique ID : 197787040724686442870709552148895739083 (0x94CC65FFCB00C338057108C654A3ACCB)
Complete name : [Fortuna.TV] Human Lost - Ningen Shikkaku [WEB-DL 1080p AAC].mkv
Format : Matroska
Format version : Version 4
File size : 3.67 GiB
Duration : 1 h 49 min
Overall bit rate : 4 805 kb/s
Encoded date : UTC 2020-05-21 10:08:55
Writing application : mkvmerge v39.0.0 ('In The Waiting Line') 64-bit
Writing library : libebml v1.3.9 + libmatroska v1.5.2

Video
ID : 1
Format : AVC
Format/Info : Advanced Video Codec
Format profile : High@L4
Format settings : CABAC / 5 Ref Frames
Format settings, CABAC : Yes
Format settings, Reference frames : 5 frames
Codec ID : V_MPEG4/ISO/AVC
Duration : 1 h 49 min
Bit rate : 4 554 kb/s
Nominal bit rate : 5 000 kb/s
Width : 1 920 pixels
Height : 804 pixels
Display aspect ratio : 2.40:1
Frame rate mode : Constant
Frame rate : 24.000 FPS
Color space : YUV
Chroma subsampling : 4:2:0
Bit depth : 8 bits
Scan type : Progressive
Bits/(Pixel*Frame) : 0.123
Stream size : 3.48 GiB (95%)
Writing library : x264 core 148 r2721 72d53ab
Encoding settings : cabac=1 / ref=5 / deblock=1:0:0 / analyse=0x3:0x133 / me=umh / subme=10 / psy=1 / psy_rd=1.00:0.00 / mixed_ref=1 / me_range=24 / chroma_me=1 / trellis=2 / 8x8dct=1 / cqm=0 / deadzone=21,11 / fast_pskip=1 / chroma_qp_offset=-2 / threads=25 / lookahead_threads=4 / sliced_threads=0 / nr=0 / decimate=1 / interlaced=0 / bluray_compat=0 / constrained_intra=0 / bframes=8 / b_pyramid=2 / b_adapt=2 / b_bias=0 / direct=3 / weightb=1 / open_gop=0 / weightp=2 / keyint=96 / keyint_min=48 / scenecut=40 / intra_refresh=0 / rc_lookahead=60 / rc=2pass / mbtree=1 / bitrate=5000 / ratetol=1.0 / qcomp=0.60 / qpmin=0 / qpmax=69 / qpstep=4 / cplxblur=20.0 / qblur=0.5 / vbv_maxrate=5500 / vbv_bufsize=2500 / nal_hrd=none / filler=0 / ip_ratio=1.40 / aq=1:1.00
Default : Yes
Forced : No

Audio
ID : 2
Format : AAC LC
Format/Info : Advanced Audio Codec Low Complexity
Codec ID : A_AAC-2
Duration : 1 h 49 min
Bit rate : 248 kb/s
Channel(s) : 2 channels
Channel layout : L R
Sampling rate : 48.0 kHz
Frame rate : 46.875 FPS (1024 SPF)
Compression mode : Lossy
Delay relative to video : -83 ms
Stream size : 194 MiB (5%)
Title : Reanimedia
Language : Russian
Default : Yes
Forced : No



Скриншоты:
[+] Всего файлов в раздаче - 1:
[Fortuna.TV] Human Lost - Ningen Shikkaku [WEB-DL 1080p AAC].mkv3.67 GB

Похожие раздачи по запросу - human:
2020-06-27 U Detroit: Become Human (2019) PC | RePack от FitGirl 39.10 GB ↑ 242 ↓ 696
2020-06-19 U Detroit: Become Human (2019) PC | Repack от xatab 42.07 GB ↑ 2970 ↓ 3685
2020-03-31 U Nightwish - Human. :II: Nature. [2CD] (2020) MP3 189.58 MB ↑ 126 ↓ 11
2020-01-03 U Deus Ex: Human Revolution - Director's Cut (2013) PC | Repack от xatab 10.37 GB ↑ 213 ↓ 104
2018-06-18 U Аланна Коллен - 10% HUMAN. Как микробы управляют людьми (2018) FB2 2.63 MB ↑ 263 ↓ 4

Отзывы
Зарегистрируйтесь чтобы добавить комментарий.
Загрузите программу
  uTorrent.exe
Обратная связь
Copyleft ©